Welcome Guest ( Log In | Register )

> Abaddon - Angelic Scorn (2019), Death Metal (D30)
post May 23 2019, 10:17:00
Post #1

Serial Uploader
Group Icon
Group: V.I.P
Posts: 35,857
Releases: 34042
From: Lithuania
On Forums: 11 years 2 months
Thanks: 393431 time(s)
Lithuania


(IMG:https://metalarea.org/images/audiocovers/2019_May/acov_tid322158_thumb.jpg)

*Artist: Abaddon
*Album: Angelic Scorn
*Year: 2019
*Genre: Death Metal
*Country: United States (IMG:https://metalarea.org/forum/style_images/flags/United%20States.png)
*Format: mp3@CBR320kbps
*Size: 82MB

Tracklist:
01. Purgatory
02. Angelic Scorn
03. Crown of Thorns
04. Burning Sermon
05. Justified Homicide
06. Abaddon
07. Rise from Flames
08. Celestial Malice
09. Icon of Sin
******************************
Total playing time: 35:43



Technical info
(IMG:https://metalarea.org/images/spectrogram/2019_May/0d60523c33af7e098e5d2313299061e6.png)
Input File: 2 - Angelic Scorn.mp3
Channels : 2
Sample Rate : 44100
Precision : 16-bit
Duration : 00:04:20.19 = 11474511 samples = 19514.5 CDDA sectors
File Size : 10.5M
Bit Rate : 323k
Sample Encoding: MPEG audio (layer I, II or III)
Comments :
Title=Angelic Scorn
Artist=Abaddon
Album=Angelic Scorn
Tracknumber=2
Year=2019
Genre=Metal
Discnumber=1



Register


Go to the top of the page
  Insert nick Quick quote
+Quote Post
 
Start new topic
Replies (1 - 2)
post May 23 2019, 16:42:39
Post #2

MDM-Thrash Metal
**************
Group: Металариец
Posts: 8,543
Releases: 565
From: Одесса
On Forums: 12 years 1 week
Thanks: 16590 time(s)
Ukraine


Register


Thanks:
Go to the top of the page
  Insert nick Quick quote
+Quote Post
post May 23 2019, 17:58:44
Post #3

hearer & reader
**************
Group: Металариец
Posts: 7,961
Releases: 103
From: Moscow
On Forums: 11 years 11 months
Thanks: 7458 time(s)
Russian Federation




прибруталено, приграйндовано, скучновато
Go to the top of the page
  Insert nick Quick quote
+Quote Post

Reply to this topicStart new topic
1 User(s) are reading this topic (1 Guests and 0 Anonymous Users)
0 Members:

 



- Lo-Fi Version Support form
Copyrights and abuse reports form
Time is now: 22nd August 2019 - 14:42:37