Welcome Guest ( Log In | Register )

> Neckbeard Deathcamp - So Much For The Tolerant Left (2019), Raw Black Metal/Noise
post May 23 2019, 11:45:31
Post #1

Serial Uploader
Group Icon
Group: V.I.P
Posts: 35,816
Releases: 34022
From: Lithuania
On Forums: 11 years 2 months
Thanks: 393164 time(s)
Lithuania


(IMG:https://metalarea.org/images/audiocovers/2019_May/acov_tid322166_thumb.jpg)

*Artist: Neckbeard Deathcamp
*Album: So Much For The Tolerant Left
*Year: 2019
*Genre: Raw Black Metal/Noise
*Country: United States (IMG:https://metalarea.org/forum/style_images/flags/United%20States.png)
*Format: mp3@CBR320kbps
*Size: 99MB

Tracklist:
01. Cucked 2 the Phantom Menace 01:19
02. Shitpostnacht 04:44
03. Operation Neet 03:44
04. What Are the Cargo Pockets for Lanza Extra Mags 03:30
05. Horseshoe Theory 10:34
06. Bricks Out for Harambe 04:04
07. Tolerance Candle 03:53
08. Unironically Calling Someone the Untermensch 03:26
09. Conservative Crybullying 00:42
10. /R/Iamverysmart 04:11
11. Pozerfaust Division 02:42
******************************
Total playing time: 42:49




Technical info
(IMG:https://metalarea.org/images/spectrogram/2019_May/6c9921805478669aeaea3a67a2880f3b.png)
Input File: 2 - Shitpostnacht.mp3
Channels : 2
Sample Rate : 44100
Precision : 16-bit
Duration : 00:04:43.97 = 12522901 samples = 21297.5 CDDA sectors
File Size : 11.5M
Bit Rate : 324k
Sample Encoding: MPEG audio (layer I, II or III)
Comments :
Title=Shitpostnacht
Artist=Neckbeard Deathcamp
Album=So Much for the Tolerant Left
Tracknumber=2/11
Year=2019
Genre=Black Metal
Discnumber=1/1



Register


Go to the top of the page
  Insert nick Quick quote
+Quote Post
 
Start new topic
Replies (1 - 4)
post May 23 2019, 18:13:06
Post #2

Правь статус, ####!111
**************
Group: Металариец
Posts: 3,949
Releases: 0
From: Одесса
On Forums: 11 years 5 months
Thanks: 2047 time(s)
Unknown


Sucks ass.
Go to the top of the page
  Insert nick Quick quote
+Quote Post
post May 23 2019, 18:19:59
Post #3

De Mysteriis Dom Sathanas
**************
Group: Металариец
Posts: 3,612
Releases: 63
From: Москва
On Forums: 11 years 1 month
Thanks: 3046 time(s)
Russian Federation


Anti-fascist satire, Parody of NSBM, Sick humour, Memes
Go to the top of the page
  Insert nick Quick quote
+Quote Post
post May 23 2019, 19:07:02
Post #4

Правь статус, ####!111
**************
Group: Металариец
Posts: 3,949
Releases: 0
From: Одесса
On Forums: 11 years 5 months
Thanks: 2047 time(s)
Unknown


QUOTE(RUSP73 @ May 23 2019, 19:19:59) *
Anti-fascist satire, Parody of NSBM, Sick humour, Memes

I am not even sure that it is humour tbh, or they are loosing their time in vain (IMG:style_emoticons/default/21.gif)
Go to the top of the page
  Insert nick Quick quote
+Quote Post
post May 27 2019, 15:13:58
Post #5

Group: Подсевший
Posts: 30
Releases: 0
On Forums: 5 years 6 months
Thanks: 4 time(s)
Russian Federation


никакой не Raw Black Metal/Noise, а бодрящий, веселый "war" (black/death) metal
Go to the top of the page
  Insert nick Quick quote
+Quote Post

Reply to this topicStart new topic
2 User(s) are reading this topic (2 Guests and 0 Anonymous Users)
0 Members:

 



- Lo-Fi Version Support form
Copyrights and abuse reports form
Time is now: 19th August 2019 - 10:36:09