Welcome Guest ( Log In | Register )

 
Reply to this topicStart new topic
> Divisiv - Adharma (2019), Gothic/Heavy Metal
post May 23 2019, 12:22:05
Post #1

Serial Uploader
Group Icon
Group: V.I.P
Posts: 35,861
Releases: 34042
From: Lithuania
On Forums: 11 years 2 months
Thanks: 393477 time(s)
Lithuania


(IMG:https://metalarea.org/images/audiocovers/2019_May/acov_tid322170_thumb.jpg)

*Artist: Divisiv
*Album: Adharma
*Year: 2019
*Genre: Gothic/Heavy Metal
*Country: United States (IMG:https://metalarea.org/forum/style_images/flags/United%20States.png)
*Format: mp3@CBR320kbps
*Size: 138MB

Tracklist:
01. Forgiven 05:45
02. The Fallen 05:01
03. Hide 05:02
04. Unknown 04:58
05. Discarded 04:30
06. Revitalize 06:24
07. Controlled 05:20
08. In the Dark 06:25
09. Cold 05:36
10. Rise 06:24
11. Save Me 04:39
******************************
Total playing time: 1:00:04



Technical info
(IMG:https://metalarea.org/images/spectrogram/2019_May/893baa72e39ee43d89c77bf7aed8540c.png)
Input File: 02. The Fallen.mp3
Channels : 2
Sample Rate : 44100
Precision : 16-bit
Duration : 00:05:01.58 = 13299546 samples = 22618.3 CDDA sectors
File Size : 12.1M
Bit Rate : 322k
Sample Encoding: MPEG audio (layer I, II or III)
Comments :
Title=The Fallen
Artist=Divisiv
Album=Adharma
Tracknumber=2
Year=2019
Discnumber=1



Register


Go to the top of the page
  Insert nick Quick quote
+Quote Post

Reply to this topicStart new topic
1 User(s) are reading this topic (1 Guests and 0 Anonymous Users)
0 Members:

 



- Lo-Fi Version Support form
Copyrights and abuse reports form
Time is now: 22nd August 2019 - 23:22:59