Welcome Guest ( Log In | Register )

 
Reply to this topicStart new topic
> Eartheater - Spirit Ascend (2019), Stoner/Doom Metal
post May 23 2019, 12:29:59
Post #1

Serial Uploader
Group Icon
Group: V.I.P
Posts: 35,820
Releases: 34024
From: Lithuania
On Forums: 11 years 2 months
Thanks: 393201 time(s)
Lithuania


(IMG:https://metalarea.org/images/audiocovers/2019_May/acov_tid322172_thumb.jpg)

*Artist: Eartheater
*Album: Spirit Ascend
*Year: 2019
*Genre: Stoner/Doom Metal
*Country: Sweden (IMG:https://metalarea.org/forum/style_images/flags/Sweden.png)
*Format: mp3@CBR320kbps
*Size: 83MB

Tracklist:
01. Lotus Feet 04:40
02. Man of the Sea 03:36
03. Ritual Pt. II 10:58
04. Night Flight 05:18
05. Spirits Ascend 10:54
******************************
Total playing time: 35:26




Technical info
(IMG:https://metalarea.org/images/spectrogram/2019_May/918bc19bfcd2f84fe8292be22f27ec11.png)
Input File: Eartheater - Spirit Ascend - 02 Man Of The Sea.mp3
Channels : 2
Sample Rate : 44100
Precision : 16-bit
Duration : 00:03:36.72 = 9557484 samples = 16254.2 CDDA sectors
File Size : 8.76M
Bit Rate : 323k
Sample Encoding: MPEG audio (layer I, II or III)
Comments :
Title=Man Of The Sea
Artist=Eartheater
Album=Spirit Ascend
Tracknumber=2
Year=2019



Register


Go to the top of the page
  Insert nick Quick quote
+Quote Post

Reply to this topicStart new topic
2 User(s) are reading this topic (2 Guests and 0 Anonymous Users)
0 Members:

 



- Lo-Fi Version Support form
Copyrights and abuse reports form
Time is now: 19th August 2019 - 19:12:02