Welcome Guest ( Log In | Register )

> Ulvedharr - World Of Chaos (2019), Death/Thrash Metal
post May 23 2019, 12:49:05
Post #1

Правь статус, ####!111
**************
Group: Металариец
Posts: 18,201
Releases: 12311
From: Г.Харьков
On Forums: 7 years 3 months
Thanks: 207569 time(s)
Unknown


(IMG:http://metalarea.org/images/audiocovers/2019_May/acov_tid322174_thumb.jpg)

*Artist: Ulvedharr
*Album: World Of Chaos
*Year: 2019
*Genre: Death/Thrash Metal
*Country: Italy (IMG:http://metalarea.org/forum/style_images/flags/Italy.png)
*Format: mp3@CBR320kbps
*Size: 89MB

Tracklist:
1. What Have We Done? 04:44
2. Death Stare 04:45
3. Cold War 04:23
4. World of Chaos 04:18
5. Fire in the Hole 03:57
6. Chemical Wind Imbalance 02:15
7. Fallout 04:04
8. Silent Beholder 03:37
9. Pull the Trigger 03:45
10. Vision of Chaos 03:00
******************************
Total playing time: 38:48




Extended info
Michele Balduzzi Drums
Ark Vocals, Guitars
Marco Morandi Bass
Giuseppe Ciurlia Guitars


Technical info
(IMG:http://metalarea.org/images/spectrogram/2019_May/4060280b07eb53e1b469509ac1dd40b0.png)
Input File: 4 - World of Chaos.mp3
Channels : 2
Sample Rate : 44100
Precision : 16-bit
Duration : 00:04:18.57 = 11403113 samples = 19393 CDDA sectors
File Size : 10.4M
Bit Rate : 323k
Sample Encoding: MPEG audio (layer I, II or III)
Comments :
Title=World of Chaos
Artist=Ulvedharr
Album=World of Chaos
Tracknumber=4
Year=2019
Genre=Metal
Discnumber=1



Register


Go to the top of the page
  Insert nick Quick quote
+Quote Post
 
Start new topic
Replies (1 - 1)
post May 23 2019, 15:56:05
Post #2

MDM-Thrash Metal
**************
Group: Металариец
Posts: 8,564
Releases: 570
From: Одесса
On Forums: 12 years 1 week
Thanks: 16653 time(s)
Ukraine



По превью весьма неплохо.
Go to the top of the page
  Insert nick Quick quote
+Quote Post

Reply to this topicStart new topic
1 User(s) are reading this topic (1 Guests and 0 Anonymous Users)
0 Members:

 



- Lo-Fi Version Support form
Copyrights and abuse reports form
Time is now: 24th August 2019 - 14:53:25