Welcome Guest ( Log In | Register )

 
Reply to this topicStart new topic
> Vale - Burden Of Sight (2019), Black Metal/Crust
post May 23 2019, 13:12:10
Post #1

Serial Uploader
Group Icon
Group: V.I.P
Posts: 35,861
Releases: 34042
From: Lithuania
On Forums: 11 years 2 months
Thanks: 393436 time(s)
Lithuania


(IMG:https://metalarea.org/images/audiocovers/2019_May/acov_tid322178_thumb.jpg)

*Artist: Vale
*Album: Burden Of Sight
*Year: 2019
*Genre: Black Metal/Crust
*Country: United States (IMG:https://metalarea.org/forum/style_images/flags/United%20States.png)
*Format: mp3@CBR320kbps
*Size: 76MB

Tracklist:
01. Final Flesh 05:22
02. Guilt Among the Dead
03. The Guilded Path
04. Starvation Eternal
05. Beyond the Pale
06. Grief Undone
******************************
Total playing time: 33:06




Technical info
(IMG:https://metalarea.org/images/spectrogram/2019_May/7d61f3c7deb6d43ad8b1fb74e4ca78e2.png)
Input File: 2 - Guilt Among the Dead.mp3
Channels : 2
Sample Rate : 44100
Precision : 16-bit
Duration : 00:05:12.62 = 13786718 samples = 23446.8 CDDA sectors
File Size : 12.5M
Bit Rate : 321k
Sample Encoding: MPEG audio (layer I, II or III)
Comments :
Title=Guilt Among the Dead
Artist=Vale
Album=Burden of Sight
Tracknumber=2
Year=2019
Genre=Alternative/Rock
Discnumber=1



Register


Go to the top of the page
  Insert nick Quick quote
+Quote Post

Reply to this topicStart new topic
1 User(s) are reading this topic (1 Guests and 0 Anonymous Users)
0 Members:

 



- Lo-Fi Version Support form
Copyrights and abuse reports form
Time is now: 22nd August 2019 - 15:28:36