Welcome Guest ( Log In | Register )

> More Of Myself To Kill - Creation: A (2019), Progressive Death Metal
post May 23 2019, 13:19:00
Post #1

Serial Uploader
Group Icon
Group: V.I.P
Posts: 35,856
Releases: 34042
From: Lithuania
On Forums: 11 years 2 months
Thanks: 393431 time(s)
Lithuania


(IMG:https://metalarea.org/images/audiocovers/2019_May/acov_tid322179_thumb.jpg)

*Artist: More Of Myself To Kill
*Album: Creation: A
*Year: 2019
*Genre: Progressive Death Metal
*Country: United States (IMG:https://metalarea.org/forum/style_images/flags/United%20States.png)
*Format: mp3@CBR320kbps
*Size: 85MB

Tracklist:
01. Audio Log I
02. Patient Zero
03. Dissociation
04. 3xfp
05. Audio Log II
06. Circus on a Cloud
07. Intent
08. Audio Log III
09. Creation: A
******************************
Total playing time: 36:57



Technical info
(IMG:https://metalarea.org/images/spectrogram/2019_May/3b5edf43e79ec628c1ff50a73d127502.png)
Input File: 2 - Patient Zero.mp3
Channels : 2
Sample Rate : 44100
Precision : 16-bit
Duration : 00:04:14.79 = 11236063 samples = 19109 CDDA sectors
File Size : 10.3M
Bit Rate : 322k
Sample Encoding: MPEG audio (layer I, II or III)
Comments :
Title=Patient Zero
Artist=More of Myself to Kill
Album=Creation: A
Tracknumber=2
Year=2019
Genre=Alternative/Indie Rock/Metal
Discnumber=1



Register


Go to the top of the page
  Insert nick Quick quote
+Quote Post
 
Start new topic
Replies (1 - 2)
post May 23 2019, 17:13:07
Post #2

hearer & reader
**************
Group: Металариец
Posts: 7,961
Releases: 103
From: Moscow
On Forums: 11 years 11 months
Thanks: 7458 time(s)
Russian Federation


Второй трек и прошлогодняя ипиха:

Маткористо малость и что-то раздражает. Вокал, видимо.


Thanks:
(1) Andrew,
Go to the top of the page
  Insert nick Quick quote
+Quote Post
post May 24 2019, 07:10:10
Post #3

Четыре Литра
****
Group: Металариец
Posts: 302
Releases: 61
From: saratov
On Forums: 10 years 3 days
Thanks: 1482 time(s)
Russian Federation


Раздражает здесь все,начиная с дилетанской обложки и заканчивая такой же "музыкой"
Go to the top of the page
  Insert nick Quick quote
+Quote Post

Reply to this topicStart new topic
1 User(s) are reading this topic (1 Guests and 0 Anonymous Users)
0 Members:

 



- Lo-Fi Version Support form
Copyrights and abuse reports form
Time is now: 22nd August 2019 - 14:31:38