Welcome Guest ( Log In | Register )

 
Reply to this topicStart new topic
> Widower - Cataclysmic Sorcery (2019), Blackened Thrash Metal (D5)
post May 23 2019, 13:31:56
Post #1

Правь статус, ####!111
**************
Group: Металариец
Posts: 18,179
Releases: 12297
From: Г.Харьков
On Forums: 7 years 3 months
Thanks: 207296 time(s)
Unknown


(IMG:http://metalarea.org/images/audiocovers/2019_May/acov_tid322181_thumb.jpg)

*Artist: Widower
*Album: Cataclysmic Sorcery
*Year: 2019
*Genre: Blackened Thrash Metal
*Country: United States (IMG:http://metalarea.org/forum/style_images/flags/United%20States.png)
*Format: mp3@CBR320kbps
*Size: 114MB

Tracklist:
1. House of the Lord 04:55
2. Into the Crypt 03:01
3. Hell Sent 03:23
4. Bestial Endowment 03:15
5. Mandatory Immolation 02:45
6. Fornicate Upon Mass Graves 04:06
7. Tree of Ignorance 04:20
8. Cosmic Holocaust 04:10
9. Forgotten Realm 06:28
10. Storming the Castle (Bonus) 03:51
11. Pray for Blood (Bonus) 04:01
12. Corpse Golem (bonus) 05:22
******************************
Total playing time: 49:37




Extended info
Jake Holmes Bass, Vocals (backing)
Sterling Junkin Drums
Jimmy Byam Guitars, Vocals
Danny Wrath Guitars, Vocals


Technical info
(IMG:http://metalarea.org/images/spectrogram/2019_May/dcfb3e72f534aa88d3b36c8b4e8e78d8.png)
Input File: 6 - Fornicate Upon Mass Graves.mp3
Channels : 2
Sample Rate : 44100
Precision : 16-bit
Duration : 00:04:05.70 = 10835150 samples = 18427.1 CDDA sectors
File Size : 9.95M
Bit Rate : 324k
Sample Encoding: MPEG audio (layer I, II or III)
Comments :
Title=Fornicate Upon Mass Graves
Artist=Widower
Album=Cataclysmic Sorcery
Tracknumber=6
Year=2019
Genre=Metal
Discnumber=1



Register


Go to the top of the page
  Insert nick Quick quote
+Quote Post

Reply to this topicStart new topic
2 User(s) are reading this topic (2 Guests and 0 Anonymous Users)
0 Members:

 



- Lo-Fi Version Support form
Copyrights and abuse reports form
Time is now: 23rd August 2019 - 10:26:58