Welcome Guest ( Log In | Register )

> Enchantya - On Light And Wrath (2019), Heavy/Gothic Metal
post May 23 2019, 13:34:56
Post #1

Serial Uploader
Group Icon
Group: V.I.P
Posts: 36,616
Releases: 34804
From: Lithuania
On Forums: 11 years 6 months
Thanks: 407763 time(s)
Lithuania


(IMG:https://metalarea.org/images/audiocovers/2019_May/acov_tid322182_thumb.jpg)

*Artist: Enchantya
*Album: On Light And Wrath
*Year: 2019
*Genre: Heavy/Gothic Metal
*Country: Portugal (IMG:https://metalarea.org/forum/style_images/flags/Portugal.png)
*Format: mp3@CBR320kbps
*Size: 113MB

Tracklist:
01. Turn of the Wheel 02:07
02. Last Moon of March 04:03
03. The Beginning 04:22
04. Poet's Tears 05:01
05. Near Life Experience 04:21
06. Alma 02:49
07. Downfall to Power 04:26
08. Hide Me 04:06
09. Deception (Since You Lied) 04:56
10. Once upon a Lie 06:53
11. From the Ashes 06:20
******************************
Total playing time: 49:24

(IMG:https://metalarea.org/images/myspace.png)



Technical info
(IMG:https://metalarea.org/images/spectrogram/2019_May/98fed30c19db09335a795dc69c953fd6.png)
Input File: 2 - Last Moon of March.mp3
Channels : 2
Sample Rate : 44100
Precision : 16-bit
Duration : 00:04:03.42 = 10734910 samples = 18256.6 CDDA sectors
File Size : 9.78M
Bit Rate : 322k
Sample Encoding: MPEG audio (layer I, II or III)
Comments :
Title=Last Moon of March
Artist=Enchantya
Album=On Light and Wrath
Tracknumber=2
Year=2019
Genre=Metal
Discnumber=1



Register


Go to the top of the page
  Insert nick Quick quote
+Quote Post
 
Start new topic
Replies (1 - 5)
post May 23 2019, 16:33:40
Post #2

hearer & reader
**************
Group: Металариец
Posts: 8,245
Releases: 111
From: Moscow
On Forums: 12 years 3 months
Thanks: 7779 time(s)
Russian Federation



Бодро, стараются.


Thanks:
Go to the top of the page
  Insert nick Quick quote
+Quote Post
post May 23 2019, 17:34:14
Post #3

MDM-Thrash Metal
**************
Group: Металариец
Posts: 9,131
Releases: 757
From: Одесса
On Forums: 12 years 4 months
Thanks: 20139 time(s)
Ukraine


Register
Go to the top of the page
  Insert nick Quick quote
+Quote Post
post May 23 2019, 21:29:36
Post #4

Тридцать лет на борту "Тяжёлого" крейсера
**************
Group: Металариец
Posts: 2,130
Releases: 0
From: Питер
On Forums: 12 years 6 months
Thanks: 550 time(s)
Russian Federation


Да в общем-то ни о чём музон
Go to the top of the page
  Insert nick Quick quote
+Quote Post
post May 25 2019, 15:36:37
Post #5

Перевозчик
**************
Group: Металариец
Posts: 3,081
Releases: 0
On Forums: 11 years 5 months
Thanks: 677 time(s)
Russian Federation


Зато какая женщина, нет - Женщина на вокале!
Go to the top of the page
  Insert nick Quick quote
+Quote Post
post May 31 2019, 14:17:55
Post #6

Ъ
**************
Group: Металариец
Posts: 9,816
Releases: 9
On Forums: 10 years 11 months
Thanks: 1924 time(s)
Sweden


Третьесорт, клип это вообще что то несмотрибельное.
Go to the top of the page
  Insert nick Quick quote
+Quote Post

Reply to this topicStart new topic
1 User(s) are reading this topic (1 Guests and 0 Anonymous Users)
0 Members:

 



- Lo-Fi Version Support form
Copyrights and abuse reports form
Time is now: 15th December 2019 - 11:55:07