Welcome Guest ( Log In | Register )

 
Reply to this topicStart new topic
> Thonian Horde - Downfall (2019), Black 'n' Roll
post May 23 2019, 13:41:37
Post #1

Serial Uploader
Group Icon
Group: V.I.P
Posts: 35,861
Releases: 34042
From: Lithuania
On Forums: 11 years 2 months
Thanks: 393502 time(s)
Lithuania


(IMG:https://metalarea.org/images/audiocovers/2019_May/acov_tid322183_thumb.jpg)

*Artist: Thonian Horde
*Album: Downfall
*Year: 2019
*Genre: Black 'n' Roll
*Country: United States (IMG:https://metalarea.org/forum/style_images/flags/United%20States.png)
*Format: mp3@CBR320kbps
*Size: 119MB

Tracklist:
01. The Narcissist 04:34
02. Cathedral Spire 05:00
03. Cold Blooded Hypocrisy 04:35
04. Gremalkin 06:01
05. Hymn to Lilith 06:04
06. Chaos Theory Magick 04:53
07. Bring the Pain 05:58
08. Brickstorm 04:03
09. Pan 131 03:25
10. Downfall 07:08
******************************
Total playing time: 51:41




Technical info
(IMG:https://metalarea.org/images/spectrogram/2019_May/26d732e7652d99a5b70aa665db514166.png)
Input File: 2 - Cathedral Spire.mp3
Channels : 2
Sample Rate : 44100
Precision : 16-bit
Duration : 00:05:00.09 = 13233749 samples = 22506.4 CDDA sectors
File Size : 12.1M
Bit Rate : 322k
Sample Encoding: MPEG audio (layer I, II or III)
Comments :
Title=Cathedral Spire
Artist=Thonian Horde
Album=Downfall
Tracknumber=2
Year=2019
Genre=Alternative/Indie Rock/Metal
Discnumber=1



Register


Go to the top of the page
  Insert nick Quick quote
+Quote Post

Reply to this topicStart new topic
2 User(s) are reading this topic (2 Guests and 0 Anonymous Users)
0 Members:

 



- Lo-Fi Version Support form
Copyrights and abuse reports form
Time is now: 23rd August 2019 - 10:36:47