Welcome Guest ( Log In | Register )

> Jesus Chrüsler Supercar - Lücifer (2019), Death 'n' Roll
post May 23 2019, 13:49:53
Post #1

Serial Uploader
Group Icon
Group: V.I.P
Posts: 35,814
Releases: 34022
From: Lithuania
On Forums: 11 years 2 months
Thanks: 393158 time(s)
Lithuania


(IMG:https://metalarea.org/images/audiocovers/2019_May/acov_tid322184_thumb.jpg)

*Artist: Jesus Chrüsler Supercar
*Album: Lücifer
*Year: 2019
*Genre: Death 'n' Roll
*Country: Sweden (IMG:https://metalarea.org/forum/style_images/flags/Sweden.png)
*Format: mp3@CBR320kbps
*Size: 99MB

Tracklist:
01. Lucifer 04:21
02. Flesh 'n' Bones 02:59
03. Never Sleep Again 04:07
04. High Times for Low Crimes 02:55
05. Boogeyman 02:38
06. Suck on My Balls 04:22
07. Out of My Head 03:52
08. From Death to Dawn 03:32
09. Straight to Hell 03:43
10. You Can't Spell Diesel Without Die 03:28
11. Black Blood 07:14
******************************
Total playing time: 43:11



Technical info
(IMG:https://metalarea.org/images/spectrogram/2019_May/3438b8bd37d7a259511c22a3e2a64886.png)
Input File: 2 - Flesh \'n\' Bones.mp3
Channels : 2
Sample Rate : 44100
Precision : 16-bit
Duration : 00:02:58.53 = 7873305 samples = 13390 CDDA sectors
File Size : 7.21M
Bit Rate : 323k
Sample Encoding: MPEG audio (layer I, II or III)
Comments :
Title=Flesh 'n' Bones
Artist=Jesus Chrüsler Supercar
Album=Lücifer
Tracknumber=2
Year=2019
Genre=Metal
Discnumber=1



Register


Go to the top of the page
  Insert nick Quick quote
+Quote Post
 
Start new topic
Replies (1 - 1)
post May 23 2019, 21:29:02
Post #2

Ёлд ХеллоВяйне
Group Icon
Group: V.I.P
Posts: 27,449
Releases: 132
From: Питер
On Forums: 12 years 9 months
Thanks: 15469 time(s)
Russian Federation


Go to the top of the page
  Insert nick Quick quote
+Quote Post

Reply to this topicStart new topic
1 User(s) are reading this topic (1 Guests and 0 Anonymous Users)
0 Members:

 



- Lo-Fi Version Support form
Copyrights and abuse reports form
Time is now: 19th August 2019 - 05:21:52