Welcome Guest ( Log In | Register )

> Reckless Manslaughter - Caverns Of Perdition (2019), Old School Death Metal
post May 23 2019, 13:54:50
Post #1

Правь статус, ####!111
**************
Group: Металариец
Posts: 18,148
Releases: 12274
From: Г.Харьков
On Forums: 7 years 3 months
Thanks: 206874 time(s)
Unknown


(IMG:http://metalarea.org/images/audiocovers/2019_May/acov_tid322185_thumb.jpg)

*Artist: Reckless Manslaughter
*Album: Caverns Of Perdition
*Year: 2019
*Genre: Old School Death Metal
*Country: Germany (IMG:http://metalarea.org/forum/style_images/flags/Germany.png)
*Format: mp3@CBR320kbps
*Size: 102MB

Tracklist:
01. Blast into Oblivion
02. Unleash the Spirits of the Fallen
03. Operation Chastise
04. Vaporized Crucifix
05. Into Unknown Caverns
06. Catacombs of Perpetual Damnation
07. Stiffshifter
08. Decay in Embryo
09. Funeralmaster
******************************
Total playing time: 44:29




Extended info
Legolas Bass (2008-present)
See also: Abythic, The Mystery, ex-Depredation (live)
Pneumator Drums (2008-present)
See also: ex-Manstractor
Sebi Guitars (2008-present)
Leimy Vocals (2008-present)
See also: Abythic
Dennis Geil Guitars (lead) (2012-present)
See also: ex-Depravity, For God's Sake


Technical info
(IMG:http://metalarea.org/images/spectrogram/2019_May/4fbec1ea8534911e9af339e42929e0ae.png)
Input File: 04 - Vaporized Crucifix.mp3
Channels : 2
Sample Rate : 44100
Precision : 16-bit
Duration : 00:05:20.80 = 14147324 samples = 24060.1 CDDA sectors
File Size : 12.9M
Bit Rate : 322k
Sample Encoding: MPEG audio (layer I, II or III)
Comments :
Title=Vaporized Crucifix
Artist=Reckless Manslaughter
Album=Caverns of Perdition
Tracknumber=4
Year=2019
Discnumber=1



Register


Go to the top of the page
  Insert nick Quick quote
+Quote Post
 
Start new topic
Replies (1 - 4)
post May 23 2019, 15:30:25
Post #2

Правь статус, ####!111
**************
Group: Металариец
Posts: 18,148
Releases: 12274
From: Г.Харьков
On Forums: 7 years 3 months
Thanks: 206874 time(s)
Unknown


Cloud Mail 320
Register


Go to the top of the page
  Insert nick Quick quote
+Quote Post
post May 23 2019, 21:01:42
Post #3

Правь статус, ####!111
**************
Group: Металариец
Posts: 3,956
Releases: 0
From: Одесса
On Forums: 11 years 5 months
Thanks: 2059 time(s)
Unknown


Deserves a couple of spins.
Go to the top of the page
  Insert nick Quick quote
+Quote Post
post May 24 2019, 11:26:28
Post #4

Четыре Литра
****
Group: Металариец
Posts: 316
Releases: 0
From: APATIN, SERBIA, АПАТИН, СЕРБИЯ
On Forums: 11 years 9 months
Thanks: 402 time(s)



Flac

Register


Thanks:
(1) Dark Sage,
Go to the top of the page
  Insert nick Quick quote
+Quote Post
post May 26 2019, 03:31:46
Post #5

кручу наждак
**************
Group: Металариец
Posts: 4,003
Releases: 96
From: Самара
On Forums: 9 years 3 months
Thanks: 2972 time(s)
Russian Federation


К концу зачем-то скатились в совершенно ненужную дэт-думовую трясину, а в целом альбом отличный.
Go to the top of the page
  Insert nick Quick quote
+Quote Post

Reply to this topicStart new topic
2 User(s) are reading this topic (2 Guests and 0 Anonymous Users)
0 Members:

 



- Lo-Fi Version Support form
Copyrights and abuse reports form
Time is now: 20th August 2019 - 22:39:22