Welcome Guest ( Log In | Register )

 
Reply to this topicStart new topic
> Antagony - Ashes (2019), Deathcore (D4)
post May 23 2019, 14:09:25
Post #1

Serial Uploader
Group Icon
Group: V.I.P
Posts: 36,586
Releases: 34775
From: Lithuania
On Forums: 11 years 6 months
Thanks: 407180 time(s)
Lithuania


(IMG:https://metalarea.org/images/audiocovers/2019_May/acov_tid322187_thumb.jpg)

*Artist: Antagony
*Album: Ashes
*Year: 2019
*Genre: Deathcore
*Country: United States (IMG:https://metalarea.org/forum/style_images/flags/United%20States.png)
*Format: mp3@CBR320kbps
*Size: 87MB

Tracklist:
01. A Killing
02. Useless Fake
03. Slob
04. Kip and Mitch
05. End of the Circle
06. The Last Fall
07. Internal Itch
08. The Mystery That Haunts You
09. Mindwar
10. Undo This World
11. Ashes
******************************
Total playing time: 37:49

(IMG:https://metalarea.org/images/myspace.png)


(IMG:https://metalarea.org/images/youtube.png)

Technical info
(IMG:https://metalarea.org/images/spectrogram/2019_May/40e97c0fba4d1bc3a4eec65e3c1ef0db.png)
Input File: 2 - Useless Fake.mp3
Channels : 2
Sample Rate : 44100
Precision : 16-bit
Duration : 00:00:58.88 = 2596740 samples = 4416.22 CDDA sectors
File Size : 2.41M
Bit Rate : 328k
Sample Encoding: MPEG audio (layer I, II or III)
Comments :
Title=Useless Fake
Artist=Antagony
Album=Ashes
Tracknumber=2
Year=2019
Genre=Alternative/Indie Rock/Metal
Discnumber=1



Register


Go to the top of the page
  Insert nick Quick quote
+Quote Post

Reply to this topicStart new topic
1 User(s) are reading this topic (1 Guests and 0 Anonymous Users)
0 Members:

 



- Lo-Fi Version Support form
Copyrights and abuse reports form
Time is now: 9th December 2019 - 05:53:15