Welcome Guest ( Log In | Register )

 
Reply to this topicStart new topic
> Final Error - The Blind Lead The Blind (2019), Thrash Metal/Hardcore
post May 23 2019, 15:48:50
Post #1

Правь статус, ####!111
**************
Group: Металариец
Posts: 20,614
Releases: 14069
From: Г.Харьков
On Forums: 7 years 9 months
Thanks: 248167 time(s)
Unknown


(IMG:http://metalarea.org/images/audiocovers/2019_May/acov_tid322196_thumb.jpg)

*Artist: Final Error
*Album: The Blind Lead The Blind
*Year: 2019
*Genre: Thrash Metal/Hardcore
*Country: Germany (IMG:http://metalarea.org/forum/style_images/flags/Germany.png)
*Format: mp3@CBR320kbps
*Size: 77MB

Tracklist:
01. Pay For It
02. Dirty Fun
03. Darling
04. Out Of My Brain
05. Schizophrenic
06. Until The End
07. Password
08. Final Error
09. Deadly Fate
10. Control
11. All About D
******************************
Total playing time: 36:22




Extended info
Vocal: Achim,
Bass & Backing Vocal: Hammer,
Drum & Percussion: Mieke,
Guitar: Fabian,
Leadguitar: Juan


Technical info
(IMG:http://metalarea.org/images/spectrogram/2019_May/03baddaed2ce4fd969f6f1b906e634b3.png)
Input File: 04. Out Of My Brain.mp3
Channels : 2
Sample Rate : 44100
Precision : 16-bit
Duration : 00:03:54.49 = 10341053 samples = 17586.8 CDDA sectors
File Size : 9.46M
Bit Rate : 323k
Sample Encoding: MPEG audio (layer I, II or III)
Comments :
Title=Out Of My Brain
Artist=Final Error
Album=The Blind Lead The Blind
Tracknumber=4
Year=2019
Discnumber=1



Register


Go to the top of the page
  Insert nick Quick quote
+Quote Post

Reply to this topicStart new topic
1 User(s) are reading this topic (1 Guests and 0 Anonymous Users)
0 Members:

 



- Lo-Fi Version Support form
Copyrights and abuse reports form
Time is now: 19th February 2020 - 10:53:54