Welcome Guest ( Log In | Register )

 
Reply to this topicStart new topic
> Syrkai - The Nine Circles Of Hell (2019), Black Metal
post May 23 2019, 16:03:01
Post #1

Serial Uploader
Group Icon
Group: V.I.P
Posts: 37,011
Releases: 35193
From: Lithuania
On Forums: 11 years 8 months
Thanks: 414457 time(s)
Lithuania


(IMG:https://metalarea.org/images/audiocovers/2019_May/acov_tid322199_thumb.jpg)

*Artist: Syrkai
*Album: The Nine Circles Of Hell
*Year: 2019
*Genre: Black Metal
*Country: Brazil (IMG:https://metalarea.org/forum/style_images/flags/Brazil.png)
*Format: mp3@CBR320kbps
*Size: 79MB

Tracklist:
01. Abandon All the Hopes 04:46
02. Why Is There a Fog in My Mind 10:50
03. The Nine Circles of Hell 07:08
04. This Is the End 06:50
05. Black Metal Is War 05:00
******************************
Total playing time: 34:34


(IMG:https://metalarea.org/images/youtube.png)

Technical info
(IMG:https://metalarea.org/images/spectrogram/2019_May/daf4f85d31df8303dd422a3327a9583e.png)
Input File: 02. Why Is There a Fog in My Mind.mp3
Channels : 2
Sample Rate : 44100
Precision : 16-bit
Duration : 00:10:50.49 = 28686521 samples = 48786.6 CDDA sectors
File Size : 26.0M
Bit Rate : 320k
Sample Encoding: MPEG audio (layer I, II or III)
Comments :
Title=Why Is There a Fog in My Mind
Artist=Syrkai
Album=The Nine Circles of Hell
Tracknumber=2
Year=2019
Discnumber=1



Register


Go to the top of the page
  Insert nick Quick quote
+Quote Post

Reply to this topicStart new topic
1 User(s) are reading this topic (1 Guests and 0 Anonymous Users)
0 Members:

 



- Lo-Fi Version Support form
Copyrights and abuse reports form
Time is now: 20th February 2020 - 18:55:19