Welcome Guest ( Log In | Register )

> И неформату есть предел.

Рэп/хип-хоп/шансон/поп удаляются. Для них есть свои порталы.

 
Reply to this topicStart new topic
> Heiden - Země Beze Mě (2019), Alternative Rock (D)
post May 25 2019, 12:15:24
Post #1

Два Литра
**
Group: Завсегдатай
Posts: 121
Releases: 29
From: Mighty Warriors
On Forums: 12 years 9 months
Thanks: 394 time(s)
Russian Federation


(IMG:http://metalarea.org/images/audiocovers/2019_May/acov_tid322255_thumb.jpg)

*Artist: Heiden
*Album: Země Beze Mě
*Year: 2019
*Genre: Alternative Rock
*Country: Czech Republic (IMG:http://metalarea.org/forum/style_images/flags/Czech%20Republic.png)
*Format: mp3@CBR256kbps
*Size: 70MB

Tracklist:
1.030701 00:38
2.K má strach 04:24
3.Hledám klíč 04:37
4.F43 05:33
5.3. července 04:08
6.Čas 03:59
7.Signál slábne 05:11
8.Nebe je stejné, můj den je jiný 03:43
9.Nechci si nic pamatovat 05:17
******************************
Total playing time: 37:30



Technical info
(IMG:http://metalarea.org/images/spectrogram/2019_May/c1cd94da264849400f71695729bebbf4.png)
Input File: 02 - K má strach.mp3
Channels : 2
Sample Rate : 44100
Precision : 16-bit
Duration : 00:04:24.19 = 11650691 samples = 19814.1 CDDA sectors
File Size : 8.46M
Bit Rate : 256k
Sample Encoding: MPEG audio (layer I, II or III)
Comments :
Title=K má strach
Artist=Heiden
Album=Zemì beze mì
Tracknumber=2
Year=2019



Register
Go to the top of the page
  Insert nick Quick quote
+Quote Post

Reply to this topicStart new topic
1 User(s) are reading this topic (1 Guests and 0 Anonymous Users)
0 Members:

 



- Lo-Fi Version Support form
Copyrights and abuse reports form
Time is now: 18th June 2019 - 17:39:20