Welcome Guest ( Log In | Register )

> И неформату есть предел.

Рэп/хип-хоп/шансон/поп удаляются. Для них есть свои порталы.

> Uran 0 - Nigredo (2019), Dark Ambient (D12)
post May 25 2019, 14:17:50
Post #1

Group: Дух
Posts: 1
Releases: 0
On Forums: 2 months 3 weeks
Thanks: 6 time(s)
Russian Federation


(IMG:https://metalarea.org/images/audiocovers/2019_May/acov_tid322266_thumb.png)

*Artist: Uran 0
*Album: Nigredo
*Year: 2019
*Genre: Dark Ambient
*Country: Russian Federation (IMG:https://metalarea.org/forum/style_images/flags/Russian%20Federation.png)
*Format: mp3@CBR320kbps
*Size: 102MB

Tracklist:
1.Clouds
2.Frost On Glass
3.Industrial Territory
4.Nihilism
5.Stars Die
6.Stream
7.Industrial Landscape
8.Nigredo
9.Outer Space
10.Winter Solitude
11.Panzer Division
12.Sunset Industry
13.After Autumn
14.Thaw
******************************
Total playing time: 55:03

Technical info
(IMG:https://metalarea.org/images/spectrogram/2019_May/0cf2094b0d8261dc8a4c28d948d36d27.png)
Input File: 1.uRAn 0 - Clouds.mp3
Channels : 2
Sample Rate : 44100
Precision : 16-bit
Duration : 00:00:58.99 = 2601371 samples = 4424.1 CDDA sectors
File Size : 2.36M
Bit Rate : 320k
Sample Encoding: MPEG audio (layer I, II or III)
Comments :
Title=Clouds
Artist=uRAn 0
Year=2019
Genre=19



Register


Go to the top of the page
  Insert nick Quick quote
+Quote Post
 
Start new topic
Replies (1 - 2)
post May 31 2019, 00:05:53
Post #2

Leegte
***********
Group: Металариец
Posts: 1,551
Releases: 14
From: Kiovia
On Forums: 7 years 4 months
Thanks: 2174 time(s)
Ukraine


Ухты, проект ещё жив. Любопытно.
Go to the top of the page
  Insert nick Quick quote
+Quote Post
post May 31 2019, 09:41:43
Post #3

Dr.
**************
Group: Металариец
Posts: 5,305
Releases: 0
From: Primorye.ru
On Forums: 8 years 4 months
Thanks: 1079 time(s)
Russian Federation


Go to the top of the page
  Insert nick Quick quote
+Quote Post

Reply to this topicStart new topic
1 User(s) are reading this topic (1 Guests and 0 Anonymous Users)
0 Members:

 



- Lo-Fi Version Support form
Copyrights and abuse reports form
Time is now: 20th August 2019 - 17:58:15