Welcome Guest ( Log In | Register )

> И неформату есть предел.

Рэп/хип-хоп/шансон/поп удаляются. Для них есть свои порталы.

 
Reply to this topicStart new topic
> Various Artists - Eastern Front [compilation] (1981), Hardcore Punk (D2105)
post May 25 2019, 23:20:03
Post #1

Пять Литров
*****
Group: Металариец
Posts: 470
Releases: 101
On Forums: 7 months 2 weeks
Thanks: 1018 time(s)
Canada


(IMG:http://metalarea.org/images/audiocovers/2019_May/acov_tid322290_thumb.jpeg)

*Artist: Various Artists
*Album: Eastern Front [compilation]
*Year: 1981
*Genre: Hardcore Punk
*Country: United States (IMG:http://metalarea.org/forum/style_images/flags/United%20States.png)
*Format: mp3@CBR320kbps
*Size: 61MB

Tracklist:
1. DOA - Unknown 02:59
2. DOA - Fucked Up Baby 01:25
3. TSOL - Love Story 02:17
4. The Lewd - Suburban Prodigy 01:54
5. War Zone - Marriage Of Convenience / Yahoo Song 01:41
6. Flipper - Ever 02:38
7. The Offs - One More Shot 03:44
8. The Wounds - Beach 02:33
9. The Tanks - My Town 03:34
10. Toiling Midgets - Tomorrow Never Knows 03:20
******************************
Total playing time: 26:05

Extended info
West Coast American and Canadian bands

Thanks to the original uploader, Punk Not Profit


Technical info
(IMG:http://metalarea.org/images/spectrogram/2019_May/689e8adddb826206cb67be60773b8bfd.png)
Input File: 01 DOA _Unknown_.mp3
Channels : 2
Sample Rate : 44100
Precision : 16-bit
Duration : 00:02:59.67 = 7923271 samples = 13475 CDDA sectors
File Size : 7.29M
Bit Rate : 325k
Sample Encoding: MPEG audio (layer I, II or III)
Comments :
Title=DOA "Unknown"
Artist=Eastern Front Vol. 1
Album=v/a 1981 compilation lp
Tracknumber=1
Genre=Punk Not Profit



Register


Thanks:
Go to the top of the page
  Insert nick Quick quote
+Quote Post

Reply to this topicStart new topic
1 User(s) are reading this topic (1 Guests and 0 Anonymous Users)
0 Members:

 



- Lo-Fi Version Support form
Copyrights and abuse reports form
Time is now: 17th September 2019 - 21:39:11