Welcome Guest ( Log In | Register )

> И неформату есть предел.

Рэп/хип-хоп/шансон/поп удаляются. Для них есть свои порталы.

 
Reply to this topicStart new topic
> Necromance - Wiederkehr Der Schmerzen (1999), Industrial/Gothic Metal
post May 26 2019, 18:07:49
Post #1

but I'm white and furry
**********
Group: Металариец
Posts: 1,157
Releases: 417
From: Москва
On Forums: 13 years 4 months
Thanks: 5150 time(s)
Russian Federation


(IMG:https://metalarea.org/images/audiocovers/2019_May/acov_tid322308_thumb.jpg)

*Artist: Necromance
*Album: Wiederkehr Der Schmerzen
*Year: 1999
*Genre: Industrial/Gothic Metal
*Country: Germany (IMG:https://metalarea.org/forum/style_images/flags/Germany.png)
*Format: mp3@CBR320kbps
*Size: 131MB

Tracklist:
1. Far Away 4:43
2. Immortal Cry 3:19
3. The Day of the Lord 4:20
4. Frostiger Stern 4:47
5. Taste of Home 4:13
6. Genezareth 3:21
7. Conscience 3:14
8. Megiddo 3:56
9. Our Love in Our Tears 3:11
10. Trugbild 4:17
11. My Faithful Shepherd 3:52
12. Wiederkehr der Schmerzen 18:35
******************************
Total playing time: 1:01:48



Technical info
(IMG:https://metalarea.org/images/spectrogram/2019_May/bbc75f894398832c0a42ff130711a137.png)
Input File: 02 - Immortal Cry.mp3
Channels : 2
Sample Rate : 44100
Precision : 16-bit
Duration : 00:03:19.41 = 8793805 samples = 14955.5 CDDA sectors
File Size : 7.98M
Bit Rate : 320k
Sample Encoding: MPEG audio (layer I, II or III)
Comments :
Title=Immortal Cry
Artist=Necromance
Album=Wiederkehr der Schmerzen
Tracknumber=2
Year=1999
Genre=Metal
Discnumber=1



Register


Thanks:
Go to the top of the page
  Insert nick Quick quote
+Quote Post

Reply to this topicStart new topic
1 User(s) are reading this topic (1 Guests and 0 Anonymous Users)
0 Members:

 



- Lo-Fi Version Support form
Copyrights and abuse reports form
Time is now: 18th June 2019 - 05:38:38