Welcome Guest ( Log In | Register )

> И неформату есть предел.

Рэп/хип-хоп/шансон/поп удаляются. Для них есть свои порталы.

 
Reply to this topicStart new topic
> Necromance - Tribulation Force (2001), Industrial/Gothic Metal
post May 26 2019, 18:12:07
Post #1

but I'm white and furry
**********
Group: Металариец
Posts: 1,184
Releases: 424
From: Москва
On Forums: 13 years 7 months
Thanks: 5282 time(s)
Russian Federation


(IMG:https://metalarea.org/images/audiocovers/2019_May/acov_tid322309_thumb.jpg)

*Artist: Necromance
*Album: Tribulation Force
*Year: 2001
*Genre: Industrial/Gothic Metal
*Country: Germany (IMG:https://metalarea.org/forum/style_images/flags/Germany.png)
*Format: mp3@CBR320kbps
*Size: 107MB

Tracklist:
1. Wohl angetan von dieser Welt 6:11
2. Tribulation Force 3:51
3. Eternal Life 5:57
4. Schwarze Sonne 4:05
5. The Beyound 4:39
6. The Beast 7:09
7. He Is Risen 5:20
8. Der Schläfer 3:22
9. I Believe 4:10
10. Under the Sign of the Pyramid 5:24
******************************
Total playing time: 50:08

(IMG:https://metalarea.org/images/youtube.png)
Preview 2

Technical info
(IMG:https://metalarea.org/images/spectrogram/2019_May/b0c8298d38f297b32cd2e7ae06347fc7.png)
Input File: 02 - Tribulation Force.mp3
Channels : 2
Sample Rate : 44100
Precision : 16-bit
Duration : 00:03:51.98 = 10230450 samples = 17398.7 CDDA sectors
File Size : 9.28M
Bit Rate : 320k
Sample Encoding: MPEG audio (layer I, II or III)
Comments :
Title=Tribulation Force
Artist=Necromance
Album=Tribulation Force
Tracknumber=2
Year=2001
Genre=Metal
Discnumber=1



Register


Thanks:
Go to the top of the page
  Insert nick Quick quote
+Quote Post

Reply to this topicStart new topic
1 User(s) are reading this topic (1 Guests and 0 Anonymous Users)
0 Members:

 



- Lo-Fi Version Support form
Copyrights and abuse reports form
Time is now: 21st September 2019 - 12:17:41