Welcome Guest ( Log In | Register )

 
Reply to this topicStart new topic
> Ayyur - The Lunatic Creature [ep] (2018), Black Metal (D4)
post May 27 2019, 23:08:12
Post #1

𝕻𝕬𝕹𝕬𝕮𝕰𝕬
******
Group: Металариец
Posts: 692
Releases: 388
On Forums: 7 years 3 months
Thanks: 5806 time(s)
Unknown


(IMG:http://metalarea.org/images/audiocovers/2019_May/acov_tid322337_thumb.jpg)

*Artist: Ayyur
*Album: The Lunatic Creature [ep]
*Year: 2018
*Genre: Black Metal
*Country: Tunisia (IMG:http://metalarea.org/forum/style_images/flags/Tunisia.png)
*Format: mp3@CBR320kbps
*Size: 49MB

Tracklist:
1. Lugubrious Fields 05:55
2. The Outcast 05:12
3. The Lunatic Creature 06:06
4. He, Who Dwells In The Trenches 04:05
******************************
Total playing time: 21:18



Technical info
(IMG:http://metalarea.org/images/spectrogram/2019_May/b9f1eb9c379a6a074bf989c98bcf92dd.png)
Input File: 04 - He, Who Dwells In The Trenches.mp3
Channels : 2
Sample Rate : 44100
Precision : 16-bit
Duration : 00:04:05.33 = 10819141 samples = 18399.9 CDDA sectors
File Size : 9.91M
Bit Rate : 323k
Sample Encoding: MPEG audio (layer I, II or III)
Comments :
Title=He, Who Dwells In The Trenches
Artist=Ayyur
Album=The Lunatic Creature
Tracknumber=4
Year=2018
Genre=Black Metal



Register


Go to the top of the page
  Insert nick Quick quote
+Quote Post

Reply to this topicStart new topic
2 User(s) are reading this topic (2 Guests and 0 Anonymous Users)
0 Members:

 



- Lo-Fi Version Support form
Copyrights and abuse reports form
Time is now: 17th September 2019 - 15:16:50