Welcome Guest ( Log In | Register )

> Правила / Rules

Тут только для чтения лежат низкобитрейтные (<192kbps) релизы, для которых есть аналоги в высокобитрейтных форумах.

Here goes (and stand in read only mode) low bitrate releases (<192kbps) which were already replaced by high bitrate releases in corresponding forums.

> Alphakill - Degrees Of Manipulation (2018), Technical/Progressive Thrash Metal
post May 28 2019, 15:05:24
Post #1

Правь статус, ####!111
**************
Group: Металариец
Posts: 19,050
Releases: 12853
From: Г.Харьков
On Forums: 7 years 5 months
Thanks: 220587 time(s)
Unknown


(IMG:http://metalarea.org/images/audiocovers/2019_May/acov_tid322355_thumb.jpg)

*Artist: Alphakill
*Album: Degrees Of Manipulation
*Year: 2018
*Genre: Technical/Progressive Thrash Metal
*Country: Canada (IMG:http://metalarea.org/forum/style_images/flags/Canada.png)
*Format: mp3@CBR128kbps (IMG:http://metalarea.org/images/bit_low.gif)
*Size: 48MB

Tracklist:
1. The Straw Man 04:41
2. Thrashbringer 04:31
3. Bow to No Man 03:36
4. Morality Blurred 06:30
5. Insomnia 04:44
6. Monumental Hypocrisy 06:27
7. Deadly Inaction 05:53
8. In Hell 06:12
9. Dominion 05:43
10. Ghost 04:37
******************************
Total playing time: 52:54



Extended info
Jon Warren Guitars, Vocals (backing), Bass
Derrick Kroll Drums, Vocals (additional)
Justin Stear Vocals, Guitars, Bass



Technical info
(IMG:http://metalarea.org/images/spectrogram/2019_May/d41ed9684c5778d09f4485f68ac62575.png)
Input File: 04 - Morality Blurred.mp3
Channels : 2
Sample Rate : 44100
Precision : 16-bit
Duration : 00:06:30.07 = 17202263 samples = 29255.5 CDDA sectors
File Size : 6.24M
Bit Rate : 128k
Sample Encoding: MPEG audio (layer I, II or III)
Comments :
Title=Morality Blurred
Artist=Alphakill
Album=Degrees of Manipulation
Tracknumber=4
Year=2018
Genre=Thrash Metal



Register


Go to the top of the page
  Insert nick Quick quote
+Quote Post
 
Start new topic
Replies (1 - 1)
post May 28 2019, 21:06:03
Post #2

Литр
*
Group: Подсевший
Posts: 91
Releases: 0
From: Isla de Margarita, Venezuela
On Forums: 9 months 5 days
Thanks: 5 time(s)
Venezuela


320???? (IMG:style_emoticons/default/spitggis0.gif)


Thanks:
Go to the top of the page
  Insert nick Quick quote
+Quote Post

Причина закрытия (Borderline1991 09-06-2019):
Closed TopicStart new topic
1 User(s) are reading this topic (1 Guests and 0 Anonymous Users)
0 Members:

 



- Lo-Fi Version Support form
Copyrights and abuse reports form
Time is now: 19th October 2019 - 00:25:21