Welcome Guest ( Log In | Register )

> Правила / Rules

Тут только для чтения лежат низкобитрейтные (<192kbps) релизы, для которых есть аналоги в высокобитрейтных форумах.

Here goes (and stand in read only mode) low bitrate releases (<192kbps) which were already replaced by high bitrate releases in corresponding forums.

> Mistralth - But A Walking Shadow (2019), Dark/Doom Metal (D4)
post May 29 2019, 00:19:47
Post #1

Правь статус, ####!111
**************
Group: Металариец
Posts: 17,750
Releases: 12037
From: Г.Харьков
On Forums: 7 years 2 months
Thanks: 202086 time(s)
Unknown


(IMG:http://metalarea.org/images/audiocovers/2019_May/acov_tid322365_thumb.jpg)

*Artist: Mistralth
*Album: But A Walking Shadow
*Year: 2019
*Genre: Dark/Doom Metal
*Country: Finland (IMG:http://metalarea.org/forum/style_images/flags/Finland.png)
*Format: mp3@CBR320kbps
*Size: 91MB

Tracklist:
01. Intro
02. Grey
03. Forbidden
04. Breathe
05. Empty
06. Nothingness
******************************
Total playing time: 40:03




Extended info
Vocals and Lyrics - R.K.
Drums - Samu B.D.R.
Music - Juha S.



Technical info
(IMG:http://metalarea.org/images/spectrogram/2019_May/23e33e13213e4c4e60578704e6deb711.png)
Input File: 04 - Breathe.mp3
Channels : 2
Sample Rate : 44100
Precision : 16-bit
Duration : 00:05:47.10 = 15306978 samples = 26032.3 CDDA sectors
File Size : 13.9M
Bit Rate : 320k
Sample Encoding: MPEG audio (layer I, II or III)
Comments :
Title=Breathe
Artist=Mistralth
Album=But a Walking Shadow
Tracknumber=4
Year=2019
Genre=Metal



Register


Go to the top of the page
  Insert nick Quick quote
+Quote Post
 
Start new topic
Replies (1 - 3)
post May 29 2019, 14:54:44
Post #2

Литр
*
Group: Подсевший
Posts: 53
Releases: 0
On Forums: 1 year 8 months
Thanks: 44 time(s)
Russian Federation


апконверт, без намёка на 320
Go to the top of the page
  Insert nick Quick quote
+Quote Post
post May 29 2019, 15:11:35
Post #3

Ледоруб
**************
Group: Металариец
Posts: 22,535
Releases: 0
From: Санкт-Петербург
On Forums: 9 years 10 months
Thanks: 7366 time(s)
Russian Federation


Знакомое название, я угрожал им прежде?
Go to the top of the page
  Insert nick Quick quote
+Quote Post
post May 30 2019, 01:30:26
Post #4

Литр
*
Group: Подсевший
Posts: 73
Releases: 31
From: SPb
On Forums: 11 years 6 months
Thanks: 781 time(s)
Russian Federation


Go to the top of the page
  Insert nick Quick quote
+Quote Post

Причина закрытия (Borderline1991 09-06-2019):
Closed TopicStart new topic
2 User(s) are reading this topic (2 Guests and 0 Anonymous Users)
0 Members:

 



- Lo-Fi Version Support form
Copyrights and abuse reports form
Time is now: 17th July 2019 - 05:25:18