Welcome Guest ( Log In | Register )

> И неформату есть предел.

Рэп/хип-хоп/шансон/поп удаляются. Для них есть свои порталы.

> Dracul - Order Of The Dragon (1999), Ritual/Neo-Classical/Dark Ambient
post May 29 2019, 22:04:21
Post #1

𝕻𝕬𝕹𝕬𝕮𝕰𝕬
******
Group: Металариец
Posts: 692
Releases: 388
On Forums: 7 years 3 months
Thanks: 5828 time(s)
Unknown


(IMG:http://metalarea.org/images/audiocovers/2019_May/acov_tid322409_thumb.jpg)

*Artist: Dracul
*Album: Order Of The Dragon
*Year: 1999
*Genre: Ritual/Neo-Classical/Dark Ambient
*Country: United States (IMG:http://metalarea.org/forum/style_images/flags/United%20States.png)
*Format: mp3@CBR192kbps
*Size: 96MB

Tracklist:
1. Pondering Of Darkness 07:08
2. Blood Stained Chalice 07:24
3. Rise Of Tiamat 04:43
4. Call From Beyond The Dismal Trench 06:58
5. Astral Predator 07:03
6. Sacrifice Of The Lamb 03:54
7. Pondering Of Darkness (Instrumental Version) 07:08
8. Blood Stained Chalice (Instrumental Version) 07:24
9. Rise Of Tiamat (Instrumental Version) 04:43
10. Call From Beyond The Dismal Trench (Instrumental Version) 06:58
11. Astral Predator (Instrumental Version) 07:03
******************************
Total playing time: 1:10:26

Extended info
Dracul (aka Dracul Order Of The Dragon) was a ritual/dark ambient/neoclassical project from the United States.
The project included as members Faunus Amadeus Loki (Mastema, Endoki Forest etc.), Mephistopheles and Deacon Damien.
In 1999 they released their only album entitled "Order Of The Dragon" (aka "Rites Of The Apocalypse") on a limited CDR,
featuring ritual incantations spoken by Mephistopheles and instrumentation's performed by Faunus Amadeus Loki.
Dracul also performed live in 1997 in New York City.


Technical info
(IMG:http://metalarea.org/images/spectrogram/2019_May/bbae75fb78fb166eccd58c6436d76060.png)
Input File: 06 - Sacrifice Of The Lamb.mp3
Channels : 2
Sample Rate : 44100
Precision : 16-bit
Duration : 00:03:54.77 = 10353533 samples = 17608 CDDA sectors
File Size : 5.71M
Bit Rate : 195k
Sample Encoding: MPEG audio (layer I, II or III)
Comments :
Title=Sacrifice Of The Lamb
Artist=Dracul
Album=Order Of The Dragon
Tracknumber=6
Year=1999
Genre=Ritual/Classical/Dark Ambient



Register


Go to the top of the page
  Insert nick Quick quote
+Quote Post
 
Start new topic
Replies (1 - 1)
post Jul 5 2019, 16:06:37
Post #2

Три Литра
***
Group: Завсегдатай
Posts: 289
Releases: 0
On Forums: 3 months 1 week
Thanks: 156 time(s)
Russian Federation


Конечно, дарк-эмбиентом это не назвать. Тут эмбиент/неоклассика, записанная в плавном ритуальном ключе. Вокал, да ещё и примочечный - явно плохая идея, не зря инструментальные версии добавили.
Go to the top of the page
  Insert nick Quick quote
+Quote Post

Reply to this topicStart new topic
1 User(s) are reading this topic (1 Guests and 0 Anonymous Users)
0 Members:

 



- Lo-Fi Version Support form
Copyrights and abuse reports form
Time is now: 21st September 2019 - 12:36:52