Welcome Guest ( Log In | Register )

> 

Здесь релизы с живыми прямыми ссылками на lossless

> Legacy Of Brutality - Realm Of The Banished Gods (2019), Death Metal (D5)
post May 30 2019, 12:18:40
Post #1

Serial Uploader
Group Icon
Group: V.I.P
Posts: 35,414
Releases: 33626
From: Lithuania
On Forums: 11 years 1 week
Thanks: 386045 time(s)
Lithuania


(IMG:https://metalarea.org/images/audiocovers/2019_May/acov_tid322424_thumb.jpg)

*Artist: Legacy Of Brutality
*Album: Realm Of The Banished Gods
*Year: 2019
*Genre: Death Metal
*Country: Spain (IMG:https://metalarea.org/forum/style_images/flags/Spain.png)
*Format: mp3@CBR320kbps
*Size: 82MB

Tracklist:
01. The Arrival
02. Wasteland
03. Realm of the Banished Gods
04. Behind the Black Mirror
05. Gods of the Deep
06. The Creature of Fathomless Chaos
07. The Dweller of Darkness
08. As We March
09. The Millennial Curse
******************************
Total playing time: 35:41

(IMG:https://metalarea.org/images/myspace.png)


(IMG:https://metalarea.org/images/youtube.png)

Technical info
(IMG:https://metalarea.org/images/spectrogram/2019_May/e37d4602da96b4d1227605b5d9d5635c.png)
Input File: 2 - Wasteland.mp3
Channels : 2
Sample Rate : 44100
Precision : 16-bit
Duration : 00:05:17.12 = 13984860 samples = 23783.8 CDDA sectors
File Size : 12.7M
Bit Rate : 322k
Sample Encoding: MPEG audio (layer I, II or III)
Comments :
Title=Wasteland
Artist=Legacy of Brutality
Album=Realm of the Banished Gods
Tracknumber=2
Year=2019
Genre=Metal
Discnumber=1



Register


Go to the top of the page
  Insert nick Quick quote
+Quote Post
 
Start new topic
Replies (1 - 1)
post May 31 2019, 09:18:52
Post #2

Три Литра
***
Group: Завсегдатай
Posts: 284
Releases: 0
From: APATIN, SERBIA, АПАТИН, СЕРБИЯ
On Forums: 11 years 7 months
Thanks: 341 time(s)



Flac

Register


Thanks:
Go to the top of the page
  Insert nick Quick quote
+Quote Post

Reply to this topicStart new topic
1 User(s) are reading this topic (1 Guests and 0 Anonymous Users)
0 Members:

 



- Lo-Fi Version Support form
Copyrights and abuse reports form
Time is now: 18th June 2019 - 06:06:59