Welcome Guest ( Log In | Register )

> 

Здесь релизы с живыми прямыми ссылками на lossless

> Towering - Obscuring Manifestation (2019), Death Metal
post May 30 2019, 12:20:53
Post #1

Правь статус, ####!111
**************
Group: Металариец
Posts: 17,387
Releases: 11798
From: Г.Харьков
On Forums: 7 years 1 month
Thanks: 197346 time(s)
Unknown


(IMG:http://metalarea.org/images/audiocovers/2019_May/acov_tid322425_thumb.jpg)

*Artist: Towering
*Album: Obscuring Manifestation
*Year: 2019
*Genre: Death Metal
*Country: France (IMG:http://metalarea.org/forum/style_images/flags/France.png)
*Format: mp3@CBR320kbps
*Size: 95MB

Tracklist:
1. Intro - A Ritual of Descent 03:48
2. The Poison of Man 06:00
3. Growing Seed of Agony 05:28
4. Monuments to Our End 05:37
5. The Calling 05:00
6. One with the Black Earth 08:36
7. Becoming All - And Nothing 07:14
******************************
Total playing time: 41:43




Extended info
Necrovorator Bass
Tom J. Silver Guitars (lead), Vocals
Christnach Guitars (rhythm)
Mortem Drums


Technical info
(IMG:http://metalarea.org/images/spectrogram/2019_May/6315fac87558f8aea2473f344184b89e.png)
Input File: 03 - Growing Seed of Agony.mp3
Channels : 2
Sample Rate : 44100
Precision : 16-bit
Duration : 00:05:28.85 = 14502153 samples = 24663.5 CDDA sectors
File Size : 13.2M
Bit Rate : 321k
Sample Encoding: MPEG audio (layer I, II or III)
Comments :
Title=Growing Seed of Agony
Artist=Towering
Album=Obscuring Manifestation
Tracknumber=3
Year=2019
Genre=Metal
Discnumber=1



Register


Go to the top of the page
  Insert nick Quick quote
+Quote Post
 
Start new topic
Replies (1 - 1)
post May 31 2019, 09:17:42
Post #2

Три Литра
***
Group: Завсегдатай
Posts: 284
Releases: 0
From: APATIN, SERBIA, АПАТИН, СЕРБИЯ
On Forums: 11 years 7 months
Thanks: 341 time(s)



Flac

Register


Thanks:
(1) Olethros,
Go to the top of the page
  Insert nick Quick quote
+Quote Post

Reply to this topicStart new topic
1 User(s) are reading this topic (1 Guests and 0 Anonymous Users)
0 Members:

 



- Lo-Fi Version Support form
Copyrights and abuse reports form
Time is now: 18th June 2019 - 05:38:24