Welcome Guest ( Log In | Register )

> 

Здесь релизы с живыми прямыми ссылками на lossless

> Nekroí Theoí - Dead Gods (2019), Brutal Death Metal
post May 30 2019, 13:18:27
Post #1

Serial Uploader
Group Icon
Group: V.I.P
Posts: 35,420
Releases: 33632
From: Lithuania
On Forums: 11 years 1 week
Thanks: 386071 time(s)
Lithuania


(IMG:https://metalarea.org/images/audiocovers/2019_May/acov_tid322431_thumb.jpg)

*Artist: Nekroí Theoí
*Album: Dead Gods
*Year: 2019
*Genre: Brutal Death Metal
*Country: United States (IMG:https://metalarea.org/forum/style_images/flags/United%20States.png)
*Format: mp3@CBR320kbps
*Size: 146MB

Tracklist:
01. Doxology 04:18
02. The Foul Eucharist 06:46
03. Simony of Hollow Christs 05:53
04. Swine Cull 03:16
05. The Name Above All Names 13:23
06. Blue Shirt//White Hood 03:58
07. Ancient of Days 10:48
08. Empty Glory 04:44
09. Dead Gods 10:27
******************************
Total playing time: 1:03:33



(IMG:https://metalarea.org/images/youtube.png)

Technical info
(IMG:https://metalarea.org/images/spectrogram/2019_May/137050a8076df932259fa076f5d33c56.png)
Input File: 2 - The Foul Eucharist.mp3
Channels : 2
Sample Rate : 44100
Precision : 16-bit
Duration : 00:06:46.38 = 17921490 samples = 30478.7 CDDA sectors
File Size : 16.3M
Bit Rate : 322k
Sample Encoding: MPEG audio (layer I, II or III)
Comments :
Title=The Foul Eucharist
Artist=Nekroí Theoí
Album=Dead Gods
Tracknumber=2
Year=2019
Genre=Metal
Discnumber=1



Register


Go to the top of the page
  Insert nick Quick quote
+Quote Post
 
Start new topic
Replies (1 - 2)
post May 30 2019, 15:16:15
Post #2

hearer & reader
**************
Group: Металариец
Posts: 7,814
Releases: 103
From: Moscow
On Forums: 11 years 9 months
Thanks: 7331 time(s)
Russian Federation


Час неспешного хрюканья? Перебор...
Go to the top of the page
  Insert nick Quick quote
+Quote Post
post May 31 2019, 08:10:01
Post #3

Три Литра
***
Group: Завсегдатай
Posts: 285
Releases: 0
From: APATIN, SERBIA, АПАТИН, СЕРБИЯ
On Forums: 11 years 7 months
Thanks: 341 time(s)



Flac

Register


Thanks:
(1) Olethros,
Go to the top of the page
  Insert nick Quick quote
+Quote Post

Reply to this topicStart new topic
1 User(s) are reading this topic (1 Guests and 0 Anonymous Users)
0 Members:

 



- Lo-Fi Version Support form
Copyrights and abuse reports form
Time is now: 18th June 2019 - 17:39:11