Welcome Guest ( Log In | Register )

> 

Здесь релизы с живыми прямыми ссылками на lossless

> Nervochaos - Ablaze (2019), Old School Death/Thrash Metal
post May 30 2019, 14:22:21
Post #1

Правь статус, ####!111
**************
Group: Металариец
Posts: 18,143
Releases: 12271
From: Г.Харьков
On Forums: 7 years 3 months
Thanks: 206793 time(s)
Unknown


(IMG:http://metalarea.org/images/audiocovers/2019_May/acov_tid322440_thumb.jpg)

*Artist: Nervochaos
*Album: Ablaze
*Year: 2019
*Genre: Old School Death/Thrash Metal
*Country: Brazil (IMG:http://metalarea.org/forum/style_images/flags/Brazil.png)
*Format: mp3@CBR320kbps
*Size: 124MB

Tracklist:
1. Necroccult 03:39
2. Demonic Juggernaut 03:30
3. Feast of Cain 04:04
4. Whisperer in Darkness 03:34
5. Death Rites 03:24
6. Shamanic Possession 01:10
7. Into Nightside 04:57
8. Cave Bestiam 04:17
9. Dawn of War 00:58
10. Mors Indecepta 02:38
11. Stalker 03:36
12. My Dues 04:12
13. Downfall 03:50
14. A World Between Worlds 00:59
15. Walk Away 04:05
16. Of Evil and Men 04:28
******************************
Total playing time: 53:21



Extended info
Eduardo Lane Drums
Thiago Anduscias Bass
Guiller Guitars, Vocals
Diego Mercadante Guitars, Vocals


Technical info
(IMG:http://metalarea.org/images/spectrogram/2019_May/0accb02b9a4ba3a11d2fa4daa23cb5dc.png)
Input File: 3 - Feast of Cain.mp3
Channels : 2
Sample Rate : 44100
Precision : 16-bit
Duration : 00:04:04.39 = 10777555 samples = 18329.2 CDDA sectors
File Size : 9.89M
Bit Rate : 324k
Sample Encoding: MPEG audio (layer I, II or III)
Comments :
Title=Feast of Cain
Artist=Nervochaos
Album=Ablaze
Tracknumber=3
Year=2019
Genre=Metal
Discnumber=1



Register


Go to the top of the page
  Insert nick Quick quote
+Quote Post
 
Start new topic
Replies (1 - 2)
post May 30 2019, 16:55:01
Post #2

Правь статус, ####!111
**************
Group: Металариец
Posts: 18,143
Releases: 12271
From: Г.Харьков
On Forums: 7 years 3 months
Thanks: 206793 time(s)
Unknown


Cloud Mail 320
Register


Go to the top of the page
  Insert nick Quick quote
+Quote Post
post May 31 2019, 08:45:57
Post #3

Четыре Литра
****
Group: Металариец
Posts: 316
Releases: 0
From: APATIN, SERBIA, АПАТИН, СЕРБИЯ
On Forums: 11 years 9 months
Thanks: 402 time(s)



Flac

Register


Thanks:
Go to the top of the page
  Insert nick Quick quote
+Quote Post

Reply to this topicStart new topic
1 User(s) are reading this topic (1 Guests and 0 Anonymous Users)
0 Members:

 



- Lo-Fi Version Support form
Copyrights and abuse reports form
Time is now: 20th August 2019 - 17:42:42