Welcome Guest ( Log In | Register )

> Potential Threat - Threat To Society (2019), Thrash Metal
post May 30 2019, 17:57:19
Post #1

Правь статус, ####!111
**************
Group: Металариец
Posts: 25,773
Releases: 18452
From: Г.Харьков
On Forums: 8 years 11 months
Thanks: 364207 time(s)
Unknown


(IMG:http://metalarea.org/images/audiocovers/2019_May/acov_tid322453_thumb.jpg)

*Artist: Potential Threat
*Album: Threat To Society
*Year: 2019
*Genre: Thrash Metal
*Country: United States (IMG:http://metalarea.org/forum/style_images/flags/United%20States.png)
*Format: mp3@CBR320kbps
*Size: 100MB

Tracklist:
1. War Machine (intro) 00:51 instrumental
2. Path of the War Machine 05:35
3. Root of All Evil 05:15
4. Cry of the Wolf 04:29
5. Spitfire 04:05
6. Raise Your Fist 04:36
7. Preemptive Strike 05:31
8. Ancestor's Lament 01:22 instrumental
9. Don't Look Back 04:10
10. Victims of the Fall 06:24
11. Into the Black 05:01
******************************
Total playing time: 47:19



Extended info
Kenny Noble Drums, Vocals (backing)
Mike Noble Vocals (lead), Guitars
Damien Sisson Bass, Vocals (backing)
Daniel Sheridan Guitars (lead & rhythm), Vocals (backing)



Technical info
(IMG:http://metalarea.org/images/spectrogram/2019_May/a75489f7e3ac82a95229ec99cc2f39bd.png)
Input File: 03. Root of All Evil.mp3
Channels : 2
Sample Rate : 44100
Precision : 16-bit
Duration : 00:05:14.61 = 13874433 samples = 23596 CDDA sectors
File Size : 12.7M
Bit Rate : 322k
Sample Encoding: MPEG audio (layer I, II or III)
Comments :
Title=Root of All Evil
Artist=Potential Threat S.F.
Album=Threat to Society
Tracknumber=3/11
Year=2019
Genre=9
Discnumber=1/1



Register


Go to the top of the page
  Insert nick Quick quote
+Quote Post
 
Start new topic
Replies (1 - 5)
post May 31 2019, 07:08:59
Post #2

Правь статус, ####!111
**************
Group: Металариец
Posts: 25,773
Releases: 18452
From: Г.Харьков
On Forums: 8 years 11 months
Thanks: 364207 time(s)
Unknown


Cloud Mail 320
Register

FLAC (Tracks) 334 mb
Register


Go to the top of the page
  Insert nick Quick quote
+Quote Post
post May 31 2019, 09:24:21
Post #3

Dr.
**************
Group: Металариец
Posts: 5,331
Releases: 0
From: Primorye.ru
On Forums: 10 years 3 weeks
Thanks: 1107 time(s)
Russian Federation


early them Potential Threat-Civilization Under Threat-2013


Go to the top of the page
  Insert nick Quick quote
+Quote Post
post Jun 2 2019, 09:59:50
Post #4

Восемь Литров
********
Group: Металариец
Posts: 874
Releases: 0
From: South Of Heaven
On Forums: 13 years 8 months
Thanks: 412 time(s)
Ukraine


Очень качественный,мелодичный материал (IMG:style_emoticons/default/banana.gif)
Релизёру (IMG:style_emoticons/default/9.gif) (IMG:style_emoticons/default/9.gif)


Thanks:
Go to the top of the page
  Insert nick Quick quote
+Quote Post
post Jun 6 2019, 17:54:56
Post #5

Шесть Литров
******
Group: Металариец
Posts: 636
Releases: 0
On Forums: 11 years 9 months
Thanks: 158 time(s)
Ukraine


Альбом достоен попасть в колекцию,молодцы суперский альбом записали Америкосы!!!ритм,риффы,хоровые запевы ,отличные цепляющие мелодии-то что надо!!!


Thanks:
Go to the top of the page
  Insert nick Quick quote
+Quote Post
post Aug 14 2019, 16:06:50
Post #6

Common dweller of hell
**************
Group: Металариец
Posts: 3,675
Releases: 12
From: Dnipro
On Forums: 12 years 9 months
Thanks: 1438 time(s)
Ukraine


Отличный альбом, лучше чем два их предыдущих творения.
Go to the top of the page
  Insert nick Quick quote
+Quote Post

Reply to this topicStart new topic
2 User(s) are reading this topic (2 Guests and 0 Anonymous Users)
0 Members:

 



- Lo-Fi Version Support form
Copyrights and abuse reports form
Time is now: 18th April 2021 - 00:21:06