Welcome Guest ( Log In | Register )

> И неформату есть предел.

Рэп/хип-хоп/шансон/поп удаляются. Для них есть свои порталы.

 
Reply to this topicStart new topic
> Mayhem - Pulling Puppets Strings [ep] (1983), Punk
post May 30 2019, 20:18:07
Post #1

Пять Литров
*****
Group: Металариец
Posts: 401
Releases: 85
On Forums: 4 months 2 weeks
Thanks: 761 time(s)
Canada


(IMG:http://metalarea.org/images/audiocovers/nocover.gif)

*Artist: Mayhem
*Album: Pulling Puppets Strings [ep]
*Year: 1983
*Genre: Punk
*Country: United Kingdom (IMG:http://metalarea.org/forum/style_images/flags/United%20Kingdom.png)
*Format: mp3@CBR224kbps
*Size: 13MB

Tracklist:
1. Gentle Murder 03:22
2. (Your Face Fits) Lie and Die 02:46
3. Clean Cut 01:31
******************************
Total playing time: 7:39



Technical info
(IMG:http://metalarea.org/images/spectrogram/2019_May/f61cfe34aaa0b5fd1f99594c79724dd2.png)
Input File: 01 gentle murder.mp3
Channels : 2
Sample Rate : 44100
Precision : 16-bit
Duration : 00:03:22.89 = 8947625 samples = 15217 CDDA sectors
File Size : 5.85M
Bit Rate : 231k
Sample Encoding: MPEG audio (layer I, II or III)
Comments :
Title=gentle murder
Artist=Mayhem (UK)
Album=Pulling Puppets Strings ''7 EP
Tracknumber=1
Year=1983
Genre=UK82 Punk Rock



Register


Thanks:
Go to the top of the page
  Insert nick Quick quote
+Quote Post

Reply to this topicStart new topic
1 User(s) are reading this topic (1 Guests and 0 Anonymous Users)
0 Members:

 



- Lo-Fi Version Support form
Copyrights and abuse reports form
Time is now: 18th June 2019 - 18:51:51