Welcome Guest ( Log In | Register )

> И неформату есть предел.

Рэп/хип-хоп/шансон/поп удаляются. Для них есть свои порталы.

 
Reply to this topicStart new topic
> Mayhem - Gentle Murder [ep] (1982), Punk
post May 30 2019, 20:28:59
Post #1

Пять Литров
*****
Group: Металариец
Posts: 401
Releases: 85
On Forums: 4 months 2 weeks
Thanks: 760 time(s)
Canada


(IMG:http://metalarea.org/images/audiocovers/2019_May/acov_tid322461_thumb.jpg)

*Artist: Mayhem
*Album: Gentle Murder [ep]
*Year: 1982
*Genre: Punk
*Country: United Kingdom (IMG:http://metalarea.org/forum/style_images/flags/United%20Kingdom.png)
*Format: mp3@CBR192kbps
*Size: 10MB

Tracklist:
1. Dogsbody 02:26
2. Street Fight 01:46
3. Blood Money 01:44
4. Patriots 01:17
******************************
Total playing time: 7:13



Technical info
(IMG:http://metalarea.org/images/spectrogram/2019_May/61f0602ee09ee9af5eefb47f0d98570a.png)
Input File: 01 - Dogsbody.mp3
Channels : 2
Sample Rate : 44100
Precision : 16-bit
Duration : 00:02:26.00 = 6438600 samples = 10950 CDDA sectors
File Size : 3.53M
Bit Rate : 193k
Sample Encoding: MPEG audio (layer I, II or III)
Comments :
Title=Dogsbody
Artist=Mayhem
Album=Gentle Murder Ep 82
Tracknumber=01
Genre=NWOBHM



Register


Thanks:
(2) Olethros, Wail,
Go to the top of the page
  Insert nick Quick quote
+Quote Post

Reply to this topicStart new topic
1 User(s) are reading this topic (1 Guests and 0 Anonymous Users)
0 Members:

 



- Lo-Fi Version Support form
Copyrights and abuse reports form
Time is now: 18th June 2019 - 18:21:55