Welcome Guest ( Log In | Register )

> 

Здесь релизы с живыми прямыми ссылками на lossless

> Kryptah - Hypnos (2019), Black Metal
post May 31 2019, 15:44:31
Post #1

Литр
*
Group: Подсевший
Posts: 80
Releases: 35
On Forums: 7 months 1 week
Thanks: 622 time(s)
Unknown


(IMG:https://metalarea.org/images/audiocovers/2019_May/acov_tid322499_thumb.jpg)

*Artist: Kryptah
*Album: Hypnos
*Year: 2019
*Genre: Black Metal
*Country: Germany (IMG:https://metalarea.org/forum/style_images/flags/Germany.png)
*Format: mp3@CBR320kbps
*Size: 116MB

Tracklist:
1. Aszendent 07:53
2. Genius/Schattenwelt 06:03
3. Ungeboren 07:52
4. Niedertracht 08:40
5. Asche der Berge 06:08
6. Hypnos 08:01
7. Thanatos 06:03
******************************
Total playing time: 50:40

(IMG:https://metalarea.org/images/youtube.png)


Technical info
(IMG:https://metalarea.org/images/spectrogram/2019_May/9f5e932832496b1d84149a8ac21bee91.png)
Input File: Kryptah - Hypnos - 02 Genius Schattenwelt.mp3
Channels : 2
Sample Rate : 44100
Precision : 16-bit
Duration : 00:06:03.70 = 16038994 samples = 27277.2 CDDA sectors
File Size : 14.7M
Bit Rate : 323k
Sample Encoding: MPEG audio (layer I, II or III)
Comments :
Title=Genius Schattenwelt
Artist=Kryptah
Album=Hypnos
Tracknumber=2
Year=2019
Genre=Black Metal



Register

Register


This post has been edited by Borderline1991: Jul 6 2019, 18:35:11


Go to the top of the page
  Insert nick Quick quote
+Quote Post
 
Start new topic
Replies (1 - 3)
post Jul 13 2019, 06:46:22
Post #2

my church is black
********
Group: Металариец
Posts: 857
Releases: 1
On Forums: 2 years 5 months
Thanks: 491 time(s)
Cape Verde


Неплохой слегка мелодичный, но плотный атмосферик.


Thanks:
(1) Verhasst,
Go to the top of the page
  Insert nick Quick quote
+Quote Post
post Jul 13 2019, 07:02:44
Post #3

Cultist
**************
Group: Металариец
Posts: 4,170
Releases: 1319
From: Koenigsberg
On Forums: 12 years 10 months
Thanks: 8286 time(s)
Russian Federation


Look at the spectrum.
Go to the top of the page
  Insert nick Quick quote
+Quote Post
post Jul 13 2019, 11:12:12
Post #4

Литр
*
Group: Подсевший
Posts: 80
Releases: 35
On Forums: 7 months 1 week
Thanks: 622 time(s)
Unknown


A little Info here:
The Flac and the MP3 Version have the same Quality. Both Downloads are from Bandcamp. There is no higher quality for this Album available.
Go to the top of the page
  Insert nick Quick quote
+Quote Post

Reply to this topicStart new topic
1 User(s) are reading this topic (1 Guests and 0 Anonymous Users)
0 Members:

 



- Lo-Fi Version Support form
Copyrights and abuse reports form
Time is now: 21st November 2019 - 22:23:44