Welcome Guest ( Log In | Register )

> Miasma - Death Songs From Deepest Cellars [bootleg] (2010), Death Metal
post May 31 2019, 17:05:57
Post #1

Шесть Литров
******
Group: Металариец
Posts: 548
Releases: 115
On Forums: 1 year 2 months
Thanks: 1259 time(s)
Canada


(IMG:https://metalarea.org/images/audiocovers/nocover.gif)

*Artist: Miasma
*Album: Death Songs From Deepest Cellars [bootleg]
*Year: 2010
*Genre: Death Metal
*Country: Austria (IMG:https://metalarea.org/forum/style_images/flags/Austria.png)
*Format: mp3@CBR320kbps
*Size: 140MB

Tracklist:
Godly Amusement [Demo] (1990)
01. Melting of Imagining Existence 04:36
02. The Prayer 04:15
03. Drown in Our Blood 04:34
04. Schizophrenia? 06:28

Promo 1991 [Demo] (1991)
05. Baphomet 06:13
06. Drowning In Blood 04:11
07. Morbid Knocking 07:37

Live Leipzig, Germany 25.VII. 1992 [Live album]
Recorded live on 25 July 1992
08. Baphomet 03:25
09. Ancient Times 05:01
10. Melting of Imagining Existence 05:39
11. Drowning in Blood 05:17
12. Stillbirth 02:48
******************************
Total playing time: 1:00:04



Technical info
(IMG:https://metalarea.org/images/spectrogram/2019_May/ae7d7730c7a72e9e2071162d39df0aba.png)
Input File: 01. Melting of Imagining Existence-Godly Amusement [Demo] (1990).mp3
Channels : 2
Sample Rate : 44100
Precision : 16-bit
Duration : 00:04:36.27 = 12183331 samples = 20720 CDDA sectors
File Size : 11.1M
Bit Rate : 320k
Sample Encoding: MPEG audio (layer I, II or III)
Comments :
Title=Melting of Imagining Existence-Godly Amusement [Demo] (1990)
Artist=Miasma
Album=Death Songs from Deepest Cellars [Bootleg]
Tracknumber=01/12
Genre=Death Metal
Discnumber=1/1



Register


Go to the top of the page
  Insert nick Quick quote
+Quote Post
 
Start new topic
Replies (1 - 3)
post Nov 5 2019, 22:17:47
Post #2

Group: Дух
Posts: 4
Releases: 0
On Forums: 10 months 3 weeks
Thanks: 1 time(s)
United Kingdom


The download link is broken...

Could someone please re-upload? (IMG:style_emoticons/default/bye.gif)

Thanks!
Go to the top of the page
  Insert nick Quick quote
+Quote Post
post Nov 6 2019, 20:18:29
Post #3

Шесть Литров
******
Group: Металариец
Posts: 548
Releases: 115
On Forums: 1 year 2 months
Thanks: 1259 time(s)
Canada



Register



Thanks:
Go to the top of the page
  Insert nick Quick quote
+Quote Post
post Dec 12 2019, 17:40:57
Post #4

Group: Дух
Posts: 4
Releases: 0
On Forums: 10 months 3 weeks
Thanks: 1 time(s)
United Kingdom


QUOTE(canadaspaceman @ Nov 6 2019, 19:18:29) *


Great - thanks a lot!
Go to the top of the page
  Insert nick Quick quote
+Quote Post

Reply to this topicStart new topic
2 User(s) are reading this topic (2 Guests and 0 Anonymous Users)
0 Members:

 



- Lo-Fi Version Support form
Copyrights and abuse reports form
Time is now: 30th March 2020 - 14:28:51