Welcome Guest ( Log In | Register )

> 

Здесь релизы с живыми прямыми ссылками на lossless

> Parental Advisory - Aetas Anthropophagorum (2019), Death Metal
post May 31 2019, 23:18:21
Post #1

Правь статус, ####!111
**************
Group: Металариец
Posts: 17,392
Releases: 11800
From: Г.Харьков
On Forums: 7 years 1 month
Thanks: 197430 time(s)
Unknown


(IMG:http://metalarea.org/images/audiocovers/2019_Jun/acov_tid322515_thumb.jpg)

*Artist: Parental Advisory
*Album: Aetas Anthropophagorum
*Year: 2019
*Genre: Death Metal
*Country: Austria (IMG:http://metalarea.org/forum/style_images/flags/Austria.png)
*Format: mp3@CBR320kbps
*Size: 74MB

Tracklist:
1. Femur Masturbation 03:09
2. 78.9% 04:00
3. Cannibal Family 04:07
4. Heretic 03:41
5. Claws and Teeth 04:27
6. Conquered by the Undead 03:20
7. Reanimator 03:27
8. Age of Cannibals 05:52
******************************
Total playing time: 32:03




Extended info
Marathon Bass (1997-present)
See also: Misanthropic Might, ex-Seeds of Sorrow
Otto Guitars (1997-present)
See also: Misanthropic Might, ex-Punishment, ex-Reanima
Sic Vocals, Guitars (1997-present)
See also: Misanthropic Might, ex-Punishment
Raphi Drums (2010-present)
See also: ex-Carnivor


Technical info
(IMG:http://metalarea.org/images/spectrogram/2019_Jun/c90b3cc6ca785fb11b5e68b032a1a079.png)
Input File: 03 - Cannibal Family.mp3
Channels : 2
Sample Rate : 44100
Precision : 16-bit
Duration : 00:04:07.79 = 10927319 samples = 18583.9 CDDA sectors
File Size : 10.0M
Bit Rate : 323k
Sample Encoding: MPEG audio (layer I, II or III)
Comments :
Title=Cannibal Family
Artist=Parental Advisory
Album=Aetas Anthropophagorum
Tracknumber=3
Year=2019
Genre=Metal
Discnumber=1



Register

Register


Go to the top of the page
  Insert nick Quick quote
+Quote Post
 
Start new topic
Replies (1 - 2)
post Jun 1 2019, 07:35:29
Post #2

Правь статус, ####!111
**************
Group: Металариец
Posts: 17,392
Releases: 11800
From: Г.Харьков
On Forums: 7 years 1 month
Thanks: 197430 time(s)
Unknown


FLAC (Tracks) 230 mb
Register


Thanks:
Go to the top of the page
  Insert nick Quick quote
+Quote Post
post Jun 1 2019, 22:59:05
Post #3

Crush The Enemies
**************
Group: Металариец
Posts: 4,199
Releases: 0
From: Moscow
On Forums: 9 years 9 months
Thanks: 2329 time(s)
Russian Federation



КоЛЛектив никогда не выделялся ничем примечательным,но и откровенного говна не производил - околоКАННИБАЛовские пляски с отличным напором и агрессией! (IMG:style_emoticons/default/9.gif)


Go to the top of the page
  Insert nick Quick quote
+Quote Post

Reply to this topicStart new topic
1 User(s) are reading this topic (1 Guests and 0 Anonymous Users)
0 Members:

 



- Lo-Fi Version Support form
Copyrights and abuse reports form
Time is now: 18th June 2019 - 17:39:43