Welcome Guest ( Log In | Register )

> И неформату есть предел.

Рэп/хип-хоп/шансон/поп удаляются. Для них есть свои порталы.

> Ghostemane - Fear Network [ep] (2019), Trap Metal/Powerviolence/Sludge
post Jun 1 2019, 06:16:02
Post #1

Group: Дух
Posts: 9
Releases: 1
On Forums: 9 months 1 day
Thanks: 18 time(s)
Unknown


(IMG:https://metalarea.org/images/audiocovers/2019_Jun/acov_tid322518_thumb.jpg)

*Artist: Ghostemane
*Album: Fear Network [ep]
*Year: 2019
*Genre: Trap Metal/Powerviolence/Sludge
*Country: United States (IMG:https://metalarea.org/forum/style_images/flags/United%20States.png)
*Format: mp3@CBR320kbps
*Size: 10MB

Tracklist:
1. Martial Law 0:53
2. Carbomb 1:54
3. Pink Mist 1:19
******************************
Total playing time: 4:06



Technical info
(IMG:https://metalarea.org/images/spectrogram/2019_Jun/1ad767e33ff9a297e2dc93637d05eaa7.png)
Input File: 01 Martial Law.mp3
Channels : 2
Sample Rate : 44100
Precision : 16-bit
Duration : 00:00:53.00 = 2337432 samples = 3975.22 CDDA sectors
File Size : 2.55M
Bit Rate : 385k
Sample Encoding: MPEG audio (layer I, II or III)
Comments :
Title=Martial Law
Artist=Ghostemane
Album=Fear Network
Tracknumber=1
Year=2019
Genre=20



Register


Thanks:
(1) Olethros,
Go to the top of the page
  Insert nick Quick quote
+Quote Post
 
Start new topic
Replies (1 - 1)
post Jun 1 2019, 07:38:49
Post #2

Три Литра
***
Group: Завсегдатай
Posts: 292
Releases: 155
On Forums: 7 years 1 month
Thanks: 3803 time(s)
Unknown


"Trap Metal"

Rly? What is this? Trap like trans-sexual? Nothing like trap in EDM or trap in hip-hop. Mad newcommer. Here just powerviolence, but very bad pv.
Go to the top of the page
  Insert nick Quick quote
+Quote Post

Reply to this topicStart new topic
1 User(s) are reading this topic (1 Guests and 0 Anonymous Users)
0 Members:

 



- Lo-Fi Version Support form
Copyrights and abuse reports form
Time is now: 15th October 2019 - 08:01:17