Welcome Guest ( Log In | Register )

> Inquinok - The Hallowed Shall Serve (2019), Symphonic Black Metal (D)
post Jun 1 2019, 15:04:38
Post #1

Правь статус, ####!111
**************
Group: Металариец
Posts: 2,928
Releases: 2623
From: Одесса
On Forums: 12 years 2 months
Thanks: 25328 time(s)
Ukraine


(IMG:http://metalarea.org/images/audiocovers/2019_Jun/acov_tid322533_thumb.jpg)

*Artist: Inquinok
*Album: The Hallowed Shall Serve
*Year: 2019
*Genre: Symphonic Black Metal
*Country: United States (IMG:http://metalarea.org/forum/style_images/flags/United%20States.png)
*Format: mp3@CBR320kbps
*Size: 57MB

Tracklist:
1. Night Terror 05:33
2. Death Throes 03:31
3. The Order 05:06
4. The Altar 03:25
5. The Hallowed Shall Serve 03:32
6. Desolation 04:44
******************************
Total playing time: 25:51



Extended info
Line - up:

Krelian - Vocals, Guitars, Bass, Keyboards (Somnae, ex-Shaded Enmity)
Tormentor - Drums (Drawn and Quartered, ex-Expiration Date, ex-Shaded Enmity, Those Who Lie Beneath, ex-Immiserate, ex-Vitriol)
Nysven - Bass
Nyx - Keyboards

(IMG:https://www.metal-archives.com/images/1/7/1/6/17164_photo.jpg)


Technical info
(IMG:http://metalarea.org/images/spectrogram/2019_Jun/cc66853c2a852dc1c47d10a2284eb232.png)
Input File: 01. Night Terror.mp3
Channels : 2
Sample Rate : 44100
Precision : 16-bit
Duration : 00:05:33.11 = 14690107 samples = 24983.2 CDDA sectors
File Size : 13.3M
Bit Rate : 320k
Sample Encoding: MPEG audio (layer I, II or III)
Comments :
Title=Night Terror
Artist=Inquinok
Album=The Hallowed Shall Serve (EP)
Tracknumber=1
Year=2019
Genre=Symphonic Black Metal



Register


Go to the top of the page
  Insert nick Quick quote
+Quote Post
 
Start new topic
Replies (1 - 4)
post Jun 2 2019, 16:06:46
Post #2

Наливай!
**************
Group: Металариец
Posts: 5,808
Releases: 27
From: Москва-Бибирево
On Forums: 12 years 4 months
Thanks: 2949 time(s)
Russian Federation


Go to the top of the page
  Insert nick Quick quote
+Quote Post
post Jun 2 2019, 22:13:39
Post #3

Правь статус, ####!111
**************
Group: Металариец
Posts: 3,095
Releases: 9
From: Dnipro
On Forums: 12 years 3 weeks
Thanks: 1043 time(s)
Ukraine


Не полноформат, всего лишь E​.​P.
Go to the top of the page
  Insert nick Quick quote
+Quote Post
post Jun 3 2019, 21:41:36
Post #4

MDM-Thrash Metal
**************
Group: Металариец
Posts: 9,684
Releases: 940
From: Одесса
On Forums: 12 years 11 months
Thanks: 24182 time(s)
Ukraine


Хоть и альбом-коротыш, но качественный и слушается легко и приятно! (IMG:style_emoticons/default/20.gif)
Go to the top of the page
  Insert nick Quick quote
+Quote Post
post Aug 1 2020, 07:46:58
Post #5

Шесть Литров
******
Group: Металариец
Posts: 624
Releases: 5
From: Ивантеевка, Московская область
On Forums: 12 years 7 months
Thanks: 230 time(s)
Russian Federation


Register

320 kbps
Go to the top of the page
  Insert nick Quick quote
+Quote Post

Reply to this topicStart new topic
1 User(s) are reading this topic (1 Guests and 0 Anonymous Users)
0 Members:

 



- Lo-Fi Version Support form
Copyrights and abuse reports form
Time is now: 3rd August 2020 - 10:16:33