Welcome Guest ( Log In | Register )

> Indian Nightmare - By Ancient Force (2019), Heavy/Speed Metal/Punk
post Jun 1 2019, 18:42:08
Post #1

Правь статус, ####!111
**************
Group: Металариец
Posts: 20,674
Releases: 14117
From: Г.Харьков
On Forums: 7 years 9 months
Thanks: 249426 time(s)
Unknown


(IMG:https://metalarea.org/images/audiocovers/2019_Jun/acov_tid322542_thumb.jpg)

*Artist: Indian Nightmare
*Album: By Ancient Force
*Year: 2019
*Genre: Heavy/Speed Metal/Punk
*Country: Germany (IMG:https://metalarea.org/forum/style_images/flags/Germany.png)
*Format: mp3@CBR320kbps
*Size: 94MB

Tracklist:
1. Bastions of Nightmares 05:03
2. Incursions of Death 05:23
3. Serpent's Eye 04:20
4. Land of the Damned 06:02
5. Yang Tarampas Dan Terampas 05:29
6. Set the Spirit Free 06:26
7. The Awakening 07:23
******************************
Total playing time: 40:06




Extended info
Cedro Bass
Lalo Drums
Butch Fury Guitars
Dodi Nightmare Guitars, Vocals (backing)
Poison Snake Vocals


Technical info
(IMG:https://metalarea.org/images/spectrogram/2019_Jun/632aa41cf9aa83baa26a3bacd62b77ad.png)
Input File: 03-Serpent\'s Eye .mp3
Channels : 2
Sample Rate : 44100
Precision : 16-bit
Duration : 00:04:28.03 = 11820167 samples = 20102.3 CDDA sectors
File Size : 10.8M
Bit Rate : 323k
Sample Encoding: MPEG audio (layer I, II or III)
Comments :
Title=Serpent's Eye
Artist=Indian Nightmare
Album=By Ancient Force
Tracknumber=3
Year=2019



Register


Go to the top of the page
  Insert nick Quick quote
+Quote Post
 
Start new topic
Replies (1 - 5)
post Jun 2 2019, 13:29:35
Post #2

Правь статус, ####!111
**************
Group: Металариец
Posts: 20,674
Releases: 14117
From: Г.Харьков
On Forums: 7 years 9 months
Thanks: 249426 time(s)
Unknown


Cloud Mail 320
Register
Go to the top of the page
  Insert nick Quick quote
+Quote Post
post Jun 14 2019, 21:03:19
Post #3

Пять Литров
*****
Group: Металариец
Posts: 480
Releases: 0
From: Град Московский
On Forums: 12 years 1 month
Thanks: 120 time(s)
Russian Federation


Что то с качеством записи здесь не то и тихо и шумы какие то...
Go to the top of the page
  Insert nick Quick quote
+Quote Post
post Jun 18 2019, 07:27:04
Post #4

Три Литра
***
Group: Завсегдатай
Posts: 202
Releases: 0
From: Madrid
On Forums: 11 years 1 month
Thanks: 55 time(s)
Mexico


QUOTE(sta1081 @ Jun 14 2019, 22:03:19) *
Что то с качеством записи здесь не то и тихо и шумы какие то...


Same here, it seem a vinyl rip but with a bad cable.
Go to the top of the page
  Insert nick Quick quote
+Quote Post
post Jul 16 2019, 08:29:03
Post #5

Правь статус, ####!111
**************
Group: Металариец
Posts: 2,167
Releases: 0
From: UK
On Forums: 3 years 8 months
Thanks: 128 time(s)
United Kingdom


Excellent album but unfortunately the 2 last trx skips
Go to the top of the page
  Insert nick Quick quote
+Quote Post
post Sep 28 2019, 19:49:58
Post #6

Шесть Литров
******
Group: Металариец
Posts: 539
Releases: 1
From: АР Крым, Симферополь
On Forums: 11 years 10 months
Thanks: 239 time(s)
Russian Federation


Отменный башкотряс, по олдскулу, в лучших традициях!! (IMG:style_emoticons/default/5.gif) (IMG:style_emoticons/default/25.gif) (IMG:style_emoticons/default/20.gif) (IMG:style_emoticons/default/metaler.gif) (IMG:style_emoticons/default/m0114.gif) (IMG:style_emoticons/default/m1234.gif)


Thanks:
Go to the top of the page
  Insert nick Quick quote
+Quote Post

Reply to this topicStart new topic
2 User(s) are reading this topic (2 Guests and 0 Anonymous Users)
0 Members:

 



- Lo-Fi Version Support form
Copyrights and abuse reports form
Time is now: 25th February 2020 - 10:49:27