Welcome Guest ( Log In | Register )

> 

Здесь релизы с живыми прямыми ссылками на lossless

> Crooked Horns - The Metamorphosis (2019), Black Metal
post Jun 2 2019, 16:54:04
Post #1

Правь статус, ####!111
**************
Group: Металариец
Posts: 17,387
Releases: 11798
From: Г.Харьков
On Forums: 7 years 1 month
Thanks: 197354 time(s)
Unknown


(IMG:https://metalarea.org/images/audiocovers/2019_Jun/acov_tid322578_thumb.jpg)

*Artist: Crooked Horns
*Album: The Metamorphosis
*Year: 2019
*Genre: Black Metal
*Country: Sweden (IMG:https://metalarea.org/forum/style_images/flags/Sweden.png)
*Format: mp3@CBR320kbps
*Size: 97MB

Tracklist:
1. Vargr 06:33
2. Anathema 06:02
3. Utharaba Sba 01:30
4. Aconitum Napellus 04:18
5. To Become, as One 06:58
6. Omne Malum ab Aquilone 05:53
7. Mystêria 03:06
8. Nebel 04:43
9. In Visions - In Dreams 06:56
******************************
Total playing time: 45:59



Extended info
Hrimner Drums (2012-present)
See also: Domgård, Altar of Sacrifice, ex-Nox Aurea, Garm (Swe), ex-Vituperation
Draugthulr Guitars (lead), Vocals (2012-present)
See also: ex-Nox Aurea, ex-The Cold Existence, ex-Nox Vorago (live), ex-Warheim (live)
Wictor Lindström Vocals, Guitar (2012-present)
See also: ex-The Cold Existence



Technical info
(IMG:https://metalarea.org/images/spectrogram/2019_Jun/3e87e319bd075ed9b71f8aa80a8ae156.png)
Input File: 05. To Become, As One.mp3
Channels : 2
Sample Rate : 44100
Precision : 16-bit
Duration : 00:06:58.33 = 18448133 samples = 31374.4 CDDA sectors
File Size : 16.8M
Bit Rate : 321k
Sample Encoding: MPEG audio (layer I, II or III)
Comments :
Title=To Become, As One
Artist=Crooked Horns
Album=The Metamorphosis
Tracknumber=5/9
Year=2019
Discnumber=1/1



Register


Go to the top of the page
  Insert nick Quick quote
+Quote Post
 
Start new topic
Replies (1 - 4)
post Jun 2 2019, 19:51:27
Post #2

Семь Литров
*******
Group: Металариец
Posts: 750
Releases: 6
On Forums: 8 years 9 months
Thanks: 1027 time(s)
Unknown


немедленно загнал альбом на второй круг.
но перед тем загнал на второй круг финальную композицию.
короче, бомба.

ps: все ж при некотором количестве интересных идей, поданы они как-то сикось-накось и вразнобой.
я поначалу решил, что это фича, но походу все-таки баг (IMG:style_emoticons/default/16.gif)
Go to the top of the page
  Insert nick Quick quote
+Quote Post
post Jun 2 2019, 21:00:17
Post #3

Правь статус, ####!111
**************
Group: Металариец
Posts: 17,387
Releases: 11798
From: Г.Харьков
On Forums: 7 years 1 month
Thanks: 197354 time(s)
Unknown


FLAC (Tracks) 330 mb
Register


Go to the top of the page
  Insert nick Quick quote
+Quote Post
post Jun 2 2019, 22:54:19
Post #4

De Mysteriis Dom Sathanas
**************
Group: Металариец
Posts: 3,536
Releases: 63
From: Москва
On Forums: 10 years 11 months
Thanks: 3005 time(s)
Russian Federation


Genre:
Hard Rock/Black 'n' Roll (early), Black Metal (later)
Ниче так стиль поменяли (IMG:style_emoticons/default/1488.gif)
Go to the top of the page
  Insert nick Quick quote
+Quote Post
post Jun 4 2019, 12:08:52
Post #5

poison creosote
******
Group: Металариец
Posts: 586
Releases: 1
On Forums: 2 years 1 week
Thanks: 281 time(s)
Russian Federation


ЦИТАТА(RUSP73 @ 3rd June 2019 - 02:54:19) *
Hard Rock/Black 'n' Roll (early), Black Metal (later)
Ниче так стиль поменяли

да не то, чтобы прям поменяли. тут явно не чистый блэк, а с влиянием всего вышеупомянутого.
Go to the top of the page
  Insert nick Quick quote
+Quote Post

Reply to this topicStart new topic
1 User(s) are reading this topic (1 Guests and 0 Anonymous Users)
0 Members:

 



- Lo-Fi Version Support form
Copyrights and abuse reports form
Time is now: 18th June 2019 - 06:45:56