Welcome Guest ( Log In | Register )

> Правила / Rules

Тут только для чтения лежат низкобитрейтные (<192kbps) релизы, для которых есть аналоги в высокобитрейтных форумах.

Here goes (and stand in read only mode) low bitrate releases (<192kbps) which were already replaced by high bitrate releases in corresponding forums.

> Ihlo - Union (2019), Progressive Metal/Rock
post Jun 2 2019, 21:27:52
Post #1

21st Century Schizoid Man
**************
Group: Металариец
Posts: 6,037
Releases: 75
From: Moscow
On Forums: 11 years 5 months
Thanks: 4741 time(s)
Russian Federation


(IMG:http://metalarea.org/images/audiocovers/2019_Jun/acov_tid322586_thumb.jpg)

*Artist: Ihlo
*Album: Union
*Year: 2019
*Genre: Progressive Metal/Rock
*Country: United Kingdom (IMG:http://metalarea.org/forum/style_images/flags/United%20Kingdom.png)
*Format: mp3@CBR128kbps (IMG:http://metalarea.org/images/bit_low.gif)
*Size: 50MB

Tracklist:
1. Union 06:07
2. Reanimate 05:31
3. Starseeker 07:33
4. Hollow 06:58
5. Triumph 04:54
6. Parhelion 07:26
7. Coalescence 15:14
******************************
Total playing time: 53:43

(IMG:http://metalarea.org/images/youtube.png)
(IMG:http://metalarea.org/images/youtube.png)


Extended info
released May 31, 2019

Phil Monro - Guitars, Production, Mix
Andy Robison - Vocals, Sound Design
Clark McMenemy - Drum Production

Lucas De La Rosa - Mastering

Special Thanks to:
Connor Mackie - Guitar solo on Union
Thorfinn Van Plunkett Manson - Vocal Engineering


Technical info
(IMG:http://metalarea.org/images/spectrogram/2019_Jun/69979496ad7f14d41fa9e7c5f777eaad.png)
Input File: 01. Union.mp3
Channels : 2
Sample Rate : 44100
Precision : 16-bit
Duration : 00:06:07.61 = 16211645 samples = 27570.8 CDDA sectors
File Size : 5.88M
Bit Rate : 128k
Sample Encoding: MPEG audio (layer I, II or III)
Comments :
Title=Union
Artist=IHLO
Album=Union
Tracknumber=01
Year=2019
Genre=Progressive Rock



Register


Thanks:
Go to the top of the page
  Insert nick Quick quote
+Quote Post
 
Start new topic
Replies (1 - 1)
post Jun 5 2019, 08:16:02
Post #2

21st Century Schizoid Man
**************
Group: Металариец
Posts: 6,037
Releases: 75
From: Moscow
On Forums: 11 years 5 months
Thanks: 4741 time(s)
Russian Federation


Группа находится под сильным влиянием Haken - первый раз такое на моей памяти. Обычно влияние не такое явное.
Go to the top of the page
  Insert nick Quick quote
+Quote Post

Причина закрытия (DarkHorde 21-07-2019): Ihlo - Union (2019)
Closed TopicStart new topic
2 User(s) are reading this topic (2 Guests and 0 Anonymous Users)
0 Members:

 



- Lo-Fi Version Support form
Copyrights and abuse reports form
Time is now: 16th October 2019 - 22:36:14