Welcome Guest ( Log In | Register )

> 

Здесь релизы с живыми прямыми ссылками на lossless

> Autumn's Dawn - Smoke Screen Horizon [single] (2017), Post-Black Metal
post Jun 4 2019, 07:23:29
Post #1

Маньяк
**********
Group: Металариец
Posts: 1,175
Releases: 80
On Forums: 5 years 10 months
Thanks: 2212 time(s)
Unknown


(IMG:http://metalarea.org/images/audiocovers/2019_Jun/acov_tid322611_thumb.jpg)

*Artist: Autumn's Dawn
*Album: Smoke Screen Horizon [single]
*Year: 2017
*Genre: Post-Black Metal
*Country: Australia (IMG:http://metalarea.org/forum/style_images/flags/Australia.png)
*Format: mp3@CBR320kbps
*Size: 24MB

Tracklist:
01. Smoke Screen Horizon 10:38
******************************
Total playing time: 10:38

Extended info


Technical info
(IMG:http://metalarea.org/images/spectrogram/2019_Jun/2c5d5a4ecf3228352d14cb4f2eced2bc.png)
Input File: Autumn's Dawn - Smoke Screen Horizon.mp3
Channels : 2
Sample Rate : 44100
Precision : 16-bit
Duration : 00:10:38.96 = 28178312 samples = 47922.3 CDDA sectors
File Size : 25.7M
Bit Rate : 322k
Sample Encoding: MPEG audio (layer I, II or III)
Comments :
Title=Smoke Screen Horizon
Artist=Autumn's Dawn
Year=2017



Register


Go to the top of the page
  Insert nick Quick quote
+Quote Post
 
Start new topic
Replies (1 - 1)
post Jun 4 2019, 14:28:55
Post #2

Литр
*
Group: Подсевший
Posts: 53
Releases: 0
On Forums: 1 year 10 months
Thanks: 44 time(s)
Russian Federation


2017
Register
Go to the top of the page
  Insert nick Quick quote
+Quote Post

Reply to this topicStart new topic
1 User(s) are reading this topic (1 Guests and 0 Anonymous Users)
0 Members:

 



- Lo-Fi Version Support form
Copyrights and abuse reports form
Time is now: 23rd August 2019 - 07:27:22