Welcome Guest ( Log In | Register )

> Releases Upload / Добавление релизов

Добавить релиз тут / Click here to add release
Рекомендованные обменники / Recommended file shares

> Maelstrom Aeterna - Hellweaver (2019), Melodic Death Metal/Metalcore
post Jun 4 2019, 13:30:13
Post #1

Serial Uploader
Group Icon
Group: V.I.P
Posts: 35,477
Releases: 33689
From: Lithuania
On Forums: 11 years 2 weeks
Thanks: 386905 time(s)
Lithuania


(IMG:https://metalarea.org/images/audiocovers/2019_Jun/acov_tid322623_thumb.jpg)

*Artist: Maelstrom Aeterna
*Album: Hellweaver
*Year: 2019
*Genre: Melodic Death Metal/Metalcore
*Country: United Kingdom (IMG:https://metalarea.org/forum/style_images/flags/United%20Kingdom.png)
*Format: mp3@CBR320kbps
*Size: 158MB

Tracklist:
01. Fallen Accretion 01:24
02. Vultures Embrace 04:59
03. In the Absence of Light 05:40
04. Hellweaver 05:33
05. Affection Flame 04:59
06. From the Dark 05:28
07. Beyond the Relay 05:01
08. The Ghost Within 05:00
09. Terminal Creation 04:24
10. End Game 06:18
11. Chronicle 05:41
12. For What We've Become 06:29
13. Hellweaver (Piano Rendition) 07:05
******************************
Total playing time: 1:08:01



(IMG:https://metalarea.org/images/youtube.png)

Technical info
(IMG:https://metalarea.org/images/spectrogram/2019_Jun/2cdb316b9276feb6fca1f9c46d0c35e0.png)
Input File: 02. Vultures Embrace.mp3
Channels : 2
Sample Rate : 44100
Precision : 16-bit
Duration : 00:04:59.62 = 13213154 samples = 22471.4 CDDA sectors
File Size : 12.2M
Bit Rate : 325k
Sample Encoding: MPEG audio (layer I, II or III)
Comments :
Title=Vultures Embrace
Artist=Maelstrom Aeterna
Album=Hellweaver
Tracknumber=2/13
Year=2019
Genre=9
Discnumber=1/1



Register


Go to the top of the page
  Insert nick Quick quote
+Quote Post
 
Start new topic
Replies (1 - 6)
post Jun 5 2019, 20:18:29
Post #2

Тридцать лет на борту "Тяжёлого" крейсера
**************
Group: Металариец
Posts: 2,066
Releases: 0
From: Питер
On Forums: 12 years 2 weeks
Thanks: 515 time(s)
Russian Federation


А нормально так местами пацаны рубят, прослушал не без удовольствия
Жаль реализация хромает
Go to the top of the page
  Insert nick Quick quote
+Quote Post
post Jun 6 2019, 12:00:00
Post #3

Group: Дух
Posts: 2
Releases: 0
On Forums: 1 month 1 week
Thanks: 0 time(s)
Russian Federation


Да вообще шикардос! Напоминает местами Persefone "Aatma", только вокал не такой напрягающий.
Go to the top of the page
  Insert nick Quick quote
+Quote Post
post Jun 7 2019, 10:22:31
Post #4

Правь статус, ####!111
**************
Group: Металариец
Posts: 2,462
Releases: 2
From: Dnipro
On Forums: 10 years 11 months
Thanks: 643 time(s)
Ukraine


На один раз не более, через чур уж мудреная солянка из мдм, прога, модерна, металкора.......и тд.
Go to the top of the page
  Insert nick Quick quote
+Quote Post
post Jun 7 2019, 11:38:06
Post #5

Group: Дух
Posts: 2
Releases: 0
On Forums: 1 month 1 week
Thanks: 0 time(s)
Russian Federation


ЦИТАТА(isvili @ Jun 7 2019, 14:22:31) *
... мудреная солянка из мдм, прога, модерна, металкора.......и тд.

Поддержу! =))
Go to the top of the page
  Insert nick Quick quote
+Quote Post
post Jun 12 2019, 07:05:53
Post #6

Ъ
**************
Group: Металариец
Posts: 9,578
Releases: 9
On Forums: 10 years 5 months
Thanks: 1861 time(s)
Sweden


Третьесорт, но я пару раз прогнал, все таки мало групп делают ставку на электронику, не принося в ущерб все отсальное.
Go to the top of the page
  Insert nick Quick quote
+Quote Post
post Jun 21 2019, 22:11:00
Post #7

Три Литра
***
Group: Завсегдатай
Posts: 254
Releases: 0
From: Ростова на Дону
On Forums: 10 years 4 months
Thanks: 44 time(s)
Russian Federation


кайфы!!! (IMG:style_emoticons/default/true_black.gif)
Go to the top of the page
  Insert nick Quick quote
+Quote Post

Reply to this topicStart new topic
2 User(s) are reading this topic (2 Guests and 0 Anonymous Users)
0 Members:

 



- Lo-Fi Version Support form
Copyrights and abuse reports form
Time is now: 27th June 2019 - 07:25:34