Welcome Guest ( Log In | Register )

> 

Здесь релизы с живыми прямыми ссылками на lossless

> Kingdom - Rotting Carcass Arise Upon The Burial Mound (2019), Old School Death Metal
post Jun 5 2019, 21:29:24
Post #1

Правь статус, ####!111
**************
Group: Металариец
Posts: 19,794
Releases: 13425
From: Г.Харьков
On Forums: 7 years 6 months
Thanks: 232293 time(s)
Unknown


(IMG:https://metalarea.org/images/audiocovers/2019_Jun/acov_tid322679_thumb.jpg)

*Artist: Kingdom
*Album: Rotting Carcass Arise Upon The Burial Mound
*Year: 2019
*Genre: Old School Death Metal
*Country: Poland (IMG:https://metalarea.org/forum/style_images/flags/Poland.png)
*Format: mp3@CBR320kbps
*Size: 79MB

Tracklist:
1. Dark Light Rising 02:48
2. Świątynia zepsucia 04:47
3. Zatracony w obłędzie 02:03 instrumental
4. Cadaver Purgatory 03:36
5. Rotting Carcass Arisen 05:03
6. Otchłań zapomnienia 04:05
7. Burial Mound 03:30
8. Echo duszy utraconej 01:35 instrumental
9. Devourer of Light 02:13
10. Baphomet's Throne (Samael cover) 03:19
******************************
Total playing time: 32:59




Extended info
LWN Vocals, Guitars
STH Bass
RMK Vocals, Guitars
SLW Drums


Technical info
(IMG:https://metalarea.org/images/spectrogram/2019_Jun/825eaa9cf5a2def26a53eb84eb2d116c.png)
Input File: 05. Rotting Carcass Arisen.mp3
Channels : 2
Sample Rate : 44100
Precision : 16-bit
Duration : 00:05:03.90 = 13402078 samples = 22792.6 CDDA sectors
File Size : 12.5M
Bit Rate : 329k
Sample Encoding: MPEG audio (layer I, II or III)
Comments :
Title=Rotting Carcass Arisen
Artist=Kingdom
Album=Rotting Carcass Arise Upon the Burial Mound
Tracknumber=05
Year=2019
Genre=Metal



Register


Go to the top of the page
  Insert nick Quick quote
+Quote Post
 
Start new topic
Replies (1 - 4)
post Jun 6 2019, 11:03:47
Post #2

Правь статус, ####!111
**************
Group: Металариец
Posts: 19,794
Releases: 13425
From: Г.Харьков
On Forums: 7 years 6 months
Thanks: 232293 time(s)
Unknown


FLAC (Tracks) 405 mb
Register


Thanks:
Go to the top of the page
  Insert nick Quick quote
+Quote Post
post Jun 6 2019, 11:06:07
Post #3

Пять Литров
*****
Group: Металариец
Posts: 475
Releases: 0
From: Катин город
On Forums: 11 years 1 week
Thanks: 326 time(s)
Russian Federation


Хорошечно (IMG:style_emoticons/default/banana.gif)


Thanks:
Go to the top of the page
  Insert nick Quick quote
+Quote Post
post Jun 15 2019, 07:43:20
Post #4

кручу наждак
**************
Group: Металариец
Posts: 4,146
Releases: 98
From: Самара
On Forums: 9 years 6 months
Thanks: 3204 time(s)
Russian Federation


Великолепно.


Thanks:
Go to the top of the page
  Insert nick Quick quote
+Quote Post
post Aug 25 2019, 07:25:41
Post #5

Пять Литров
*****
Group: Металариец
Posts: 430
Releases: 0
From: APATIN, SERBIA, АПАТИН, СЕРБИЯ
On Forums: 12 years 1 month
Thanks: 545 time(s)



Flac

Register
Go to the top of the page
  Insert nick Quick quote
+Quote Post

Reply to this topicStart new topic
1 User(s) are reading this topic (1 Guests and 0 Anonymous Users)
0 Members:

 



- Lo-Fi Version Support form
Copyrights and abuse reports form
Time is now: 9th December 2019 - 03:40:18