Welcome Guest ( Log In | Register )

> И неформату есть предел.

Рэп/хип-хоп/шансон/поп удаляются. Для них есть свои порталы.

 
Reply to this topicStart new topic
> Ed Wynne - Shimmer Into Nature (2019), Instrumental Space Rock
post Jun 6 2019, 11:27:35
Post #1

Три Литра
***
Group: Завсегдатай
Posts: 235
Releases: 1
From: минск
On Forums: 9 years 10 months
Thanks: 167 time(s)
Belarus


(IMG:http://metalarea.org/images/audiocovers/2019_Jun/acov_tid322698_thumb.jpg)

*Artist: Ed Wynne
*Album: Shimmer Into Nature
*Year: 2019
*Genre: Instrumental Space Rock
*Country: United Kingdom (IMG:http://metalarea.org/forum/style_images/flags/United%20Kingdom.png)
*Format: mp3@CBR320kbps
*Size: 99MB

Tracklist:
01. Glass Staircase (8:02)
02. Travel Dust (8:32)
03. Oddplonk (8:06)
04. Shim (7:49)
05. Wherble (10:21)
******************************
Total playing time: 42:50

(IMG:http://metalarea.org/images/youtube.png)

Extended info
Ed Wynne (Ozric Tentacles, Nodens Ictus) - Electric & Acoustic Guitars, Drum Programming, Synths, Bass & Acoustic Fretless Bass
Tom Brooks - Bubbles
Paul Hankin & Neil Longhurst - Percussion
Natan Mantis - Blip Flippery
Silas Neptune - Nature Sounds


Technical info
(IMG:http://metalarea.org/images/spectrogram/2019_Jun/ccab882880fc5d61cf4c426b8f8e83f0.png)
Input File: 01-Glass_Staircase.mp3
Channels : 2
Sample Rate : 44100
Precision : 16-bit
Duration : 00:00:00.48 = 21212 samples = 36.0748 CDDA sectors
File Size : 19.4M
Bit Rate : 322M
Sample Encoding: MPEG audio (layer I, II or III)
Comments :
Title=Glass Staircase
Artist=Ed Wynne
Album=Shimmer Into Nature
Tracknumber=01
Year=2019-19-20
Genre=Space Rock



Register


Thanks:
Go to the top of the page
  Insert nick Quick quote
+Quote Post

Reply to this topicStart new topic
1 User(s) are reading this topic (1 Guests and 0 Anonymous Users)
0 Members:

 



- Lo-Fi Version Support form
Copyrights and abuse reports form
Time is now: 21st September 2019 - 12:06:50