Welcome Guest ( Log In | Register )

> Geoda - Here And Now (2019), Technical/Melodic Death Metal
post Jun 6 2019, 15:08:01
Post #1

Serial Uploader
Group Icon
Group: V.I.P
Posts: 35,814
Releases: 34022
From: Lithuania
On Forums: 11 years 2 months
Thanks: 393156 time(s)
Lithuania


(IMG:https://metalarea.org/images/audiocovers/2019_Jun/acov_tid322728_thumb.jpg)

*Artist: Geoda
*Album: Here And Now
*Year: 2019
*Genre: Technical/Melodic Death Metal
*Country: Argentina (IMG:https://metalarea.org/forum/style_images/flags/Argentina.png)
*Format: mp3@CBR320kbps
*Size: 122MB

Tracklist:
01. The Guardians of the Veil
02. Vomiting to the Skies
03. A Jump to the Next Stage
04. The Magic Mountain
05. Here and Now
06. Battle of the Cowshed
07. Tronador
08. Un Mismo Latido
09. And Cancer for All
10. Paradise Lost?
11. Last Embrace
******************************
Total playing time: 53:07




Technical info
(IMG:https://metalarea.org/images/spectrogram/2019_Jun/ac1b18336c04b6e5d0be3561a6bef468.png)
Input File: 02. Vomiting to the Skies.mp3
Channels : 2
Sample Rate : 44100
Precision : 16-bit
Duration : 00:04:07.58 = 10918234 samples = 18568.4 CDDA sectors
File Size : 10.0M
Bit Rate : 323k
Sample Encoding: MPEG audio (layer I, II or III)
Comments :
Title=Vomiting to the Skies
Artist=Geoda
Album=Here and Now
Tracknumber=2/11
Year=2019
Genre=9
Discnumber=1/1



Register


Go to the top of the page
  Insert nick Quick quote
+Quote Post
 
Start new topic
Replies (1 - 8)
post Jun 6 2019, 18:11:28
Post #2

Три Литра
***
Group: Завсегдатай
Posts: 223
Releases: 0
From: Москва
On Forums: 10 years 11 months
Thanks: 34 time(s)
Russian Federation


высокий цилиндр, одним словом шляпа
Go to the top of the page
  Insert nick Quick quote
+Quote Post
post Jun 6 2019, 18:30:39
Post #3

MDM-Thrash Metal
**************
Group: Металариец
Posts: 8,529
Releases: 564
From: Одесса
On Forums: 12 years 1 week
Thanks: 16535 time(s)
Ukraine


Register


Go to the top of the page
  Insert nick Quick quote
+Quote Post
post Jun 6 2019, 19:58:58
Post #4

Шесть Литров
******
Group: Металариец
Posts: 666
Releases: 4
From: Екатеринбург
On Forums: 11 years 9 months
Thanks: 529 time(s)
Russian Federation


Это та Геода, в записи которой приняли участие Steve Di Giorgio и Dirk Verbeuren. Надо заценить


Thanks:
(1) Язва,
Go to the top of the page
  Insert nick Quick quote
+Quote Post
post Jun 7 2019, 08:20:52
Post #5

Два Литра
**
Group: Завсегдатай
Posts: 119
Releases: 1
On Forums: 13 years 4 months
Thanks: 30 time(s)
Russian Federation


Приятный мелодичный прогрессив.
Жаль неможно вокал отключить.


Thanks:
Go to the top of the page
  Insert nick Quick quote
+Quote Post
post Jun 7 2019, 18:18:53
Post #6

Шесть Литров
******
Group: Металариец
Posts: 508
Releases: 1
From: Тверская
On Forums: 12 years 3 months
Thanks: 254 time(s)
Russian Federation


Начал слушать, пока нравится. Вокал иногда напрягает.
Go to the top of the page
  Insert nick Quick quote
+Quote Post
post Jun 8 2019, 15:06:19
Post #7

Перевозчик
**************
Group: Металариец
Posts: 2,986
Releases: 0
On Forums: 11 years 1 month
Thanks: 639 time(s)
Russian Federation


Go to the top of the page
  Insert nick Quick quote
+Quote Post
post Jun 18 2019, 12:57:14
Post #8

Schuldinerist
**************
Group: Металариец
Posts: 10,294
Releases: 33
From:
On Forums: 12 years 4 months
Thanks: 6426 time(s)
Russian Federation


8+/10
Качал из-за Steve Di Giorgio, но не вспомнил про него при прослушивании. Сейчас переслушиваю уже с этим знанием, идёт еще круче.
Материал очень не плох, такой экстрим-прог с чистоголосым характерным вокалом (не всем понравится) с заходами в thrash/death с хриплым харшем и гроулом.
В процессе вспоминается проект Highest Place - Dilemma's (2005) , переслушать его что ли..


Thanks:
Go to the top of the page
  Insert nick Quick quote
+Quote Post
post Jun 24 2019, 14:16:26
Post #9

Каратель
*****
Group: Металариец
Posts: 415
Releases: 0
From: Przemysl
On Forums: 4 years 7 months
Thanks: 308 time(s)
Poland


Очень хорошая музыка, вокал - ноу комментс.
Go to the top of the page
  Insert nick Quick quote
+Quote Post

Reply to this topicStart new topic
2 User(s) are reading this topic (2 Guests and 0 Anonymous Users)
0 Members:

 



- Lo-Fi Version Support form
Copyrights and abuse reports form
Time is now: 19th August 2019 - 04:41:51