Welcome Guest ( Log In | Register )

> 

Здесь релизы с живыми прямыми ссылками на lossless

> Andavald - Undir Skyggðarhaldi (2019), Atmospheric/Depressive Black Metal
post Jun 6 2019, 19:59:38
Post #1

Три Литра
***
Group: Завсегдатай
Posts: 273
Releases: 144
On Forums: 7 years 1 week
Thanks: 3478 time(s)
Unknown


(IMG:http://metalarea.org/images/audiocovers/2019_Jun/acov_tid322746_thumb.jpg)

*Artist: Andavald
*Album: Undir Skyggðarhaldi
*Year: 2019
*Genre: Atmospheric/Depressive Black Metal
*Country: Iceland (IMG:http://metalarea.org/forum/style_images/flags/Iceland.png)
*Format: mp3@CBR320kbps
*Size: 88MB

Tracklist:
1. Forspil 03:08
2. Afvegaleiðsla 08:42
3. Hugklofnun 10:05
4. Undir skyggðarhaldi 11:23
5. Eftirspil 03:07
******************************
Total playing time: 36:25



Technical info
(IMG:http://metalarea.org/images/spectrogram/2019_Jun/b558432676cacf46c56cfa1e846012c2.png)
Input File: Andavald - Undir skyggðarhaldi - 01 Forspil.mp3
Channels : 2
Sample Rate : 44100
Precision : 16-bit
Duration : 00:03:08.88 = 8329388 samples = 14165.6 CDDA sectors
File Size : 7.72M
Bit Rate : 327k
Sample Encoding: MPEG audio (layer I, II or III)
Comments :
Title=Forspil
Artist=Andavald
Album=Undir skyggðarhaldi
Tracknumber=1
Year=2019



Register


Go to the top of the page
  Insert nick Quick quote
+Quote Post
 
Start new topic
Replies (1 - 8)
post Jun 7 2019, 12:20:36
Post #2

Правь статус, ####!111
**************
Group: Металариец
Posts: 2,607
Releases: 8
From: Dnipro
On Forums: 11 years 2 months
Thanks: 796 time(s)
Ukraine


У исландцев все облоги на один лад, видимо у одного оформителя все пасутся (IMG:style_emoticons/default/25.gif)
Go to the top of the page
  Insert nick Quick quote
+Quote Post
post Jun 7 2019, 16:45:01
Post #3

Три Литра
***
Group: Завсегдатай
Posts: 273
Releases: 144
On Forums: 7 years 1 week
Thanks: 3478 time(s)
Unknown


ЦИТАТА(isvili @ Jun 7 2019, 12:20:36) *
У исландцев все облоги на один лад, видимо у одного оформителя все пасутся (IMG:style_emoticons/default/25.gif)

Это у лейбла Mystískaos они такие. Не особо уверен, что ты приведёшь в примеры Draugsol, Óreiða, Ónefnt, Solstafir в пример по схожести обложек у исландцев.


Thanks:
Go to the top of the page
  Insert nick Quick quote
+Quote Post
post Jun 24 2019, 14:12:47
Post #4


Group Icon
Group: S-moderation team
Posts: 11,508
Releases: 1438
From: Zagreb
On Forums: 8 years 6 months
Thanks: 49488 time(s)
Croatia


Register


Go to the top of the page
  Insert nick Quick quote
+Quote Post
post Jul 9 2019, 09:27:26
Post #5

WINTER
*******
Group: Металариец
Posts: 723
Releases: 66
On Forums: 11 years 5 months
Thanks: 1774 time(s)
Russian Federation


Register


Go to the top of the page
  Insert nick Quick quote
+Quote Post
post Jul 9 2019, 12:40:42
Post #6

poison creosote
*******
Group: Металариец
Posts: 741
Releases: 1
On Forums: 2 years 3 months
Thanks: 383 time(s)
Iceland


можно смело приписывать atmospheric/depressive тащемто. что оказалось несколько неожиданным


Thanks:
Go to the top of the page
  Insert nick Quick quote
+Quote Post
post Jul 9 2019, 15:53:42
Post #7

Мегаманьяк
***********
Group: Металариец
Posts: 1,531
Releases: 0
On Forums: 10 years 6 months
Thanks: 569 time(s)
Antarctica


Ещё один годный блэк за сегодня, напомнивший мне Alienation Cold (IMG:style_emoticons/default/27.gif)
Go to the top of the page
  Insert nick Quick quote
+Quote Post
post Jul 9 2019, 16:13:52
Post #8

Два Литра
**
Group: Завсегдатай
Posts: 186
Releases: 0
On Forums: 3 months 2 weeks
Thanks: 78 time(s)
Unknown


С первого раза не особо проникся, но потом решил еще раз послушать и все встало на свои места. Хорошая работа в которой ощущаются скорее не деприсив, а этакая меланхолия. Начинаю потихоньку вкуривать исландскую сцену (IMG:style_emoticons/default/redp.gif)
Go to the top of the page
  Insert nick Quick quote
+Quote Post
post Jul 9 2019, 16:45:04
Post #9

Три Литра
***
Group: Завсегдатай
Posts: 276
Releases: 0
On Forums: 3 months 1 week
Thanks: 151 time(s)
Russian Federation


В самом деле депрессивнее, чем обычно бывает у исландцев, хоть и на первый взгляд всё должно было быть в характерном стиле. В результате релиз вполне не плох.
Go to the top of the page
  Insert nick Quick quote
+Quote Post

Reply to this topicStart new topic
1 User(s) are reading this topic (1 Guests and 0 Anonymous Users)
0 Members:

 



- Lo-Fi Version Support form
Copyrights and abuse reports form
Time is now: 17th September 2019 - 09:50:16