Welcome Guest ( Log In | Register )

> 

Здесь релизы с живыми прямыми ссылками на lossless

> Infernal Conjuration - Infernale Metallum Mortis (2019), Death Metal (D4)
post Jun 6 2019, 20:46:28
Post #1

𝕻𝕬𝕹𝕬𝕮𝕰𝕬
******
Group: Металариец
Posts: 679
Releases: 379
On Forums: 7 years 1 month
Thanks: 5564 time(s)
Unknown


(IMG:http://metalarea.org/images/audiocovers/2019_Jun/acov_tid322747_thumb.jpg)

*Artist: Infernal Conjuration
*Album: Infernale Metallum Mortis
*Year: 2019
*Genre: Death Metal
*Country: Mexico (IMG:http://metalarea.org/forum/style_images/flags/Mexico.png)
*Format: mp3@CBR320kbps
*Size: 91MB

Tracklist:
1. Dreadful Knowledge 04:34
2. Profound Immorality 03:44
3. Infernal Conjuration 04:08
4. Cleansed In Asphyxia 04:28
5. Necrolatria (A Los Muertos Blasfemos) 06:10
6. In The Presence Of Another World 06:19
7. Demonic Possession 03:18
8. Tremendous Plague 03:45
9. Ultimatum 04:03
******************************
Total playing time: 40:29



Technical info
(IMG:http://metalarea.org/images/spectrogram/2019_Jun/681d40fee659b6d5d7743ca386fa772d.png)
Input File: 02 - Profound Immorality.mp3
Channels : 2
Sample Rate : 44100
Precision : 16-bit
Duration : 00:03:44.17 = 9885985 samples = 16812.9 CDDA sectors
File Size : 9.07M
Bit Rate : 324k
Sample Encoding: MPEG audio (layer I, II or III)
Comments :
Title=Profound Immorality
Artist=Infernal Conjuration
Album=Infernale Metallum Mortis
Tracknumber=2
Year=2019
Genre=22



Register


Go to the top of the page
  Insert nick Quick quote
+Quote Post
 
Start new topic
Replies (1 - 4)
post Jun 7 2019, 21:47:35
Post #2

Литр
*
Group: Подсевший
Posts: 83
Releases: 11
From: Croatia
On Forums: 13 years 4 months
Thanks: 644 time(s)
Croatia


mirror?
Go to the top of the page
  Insert nick Quick quote
+Quote Post
post Jun 8 2019, 07:12:52
Post #3

Литр
*
Group: Подсевший
Posts: 66
Releases: 0
On Forums: 9 years 7 months
Thanks: 12 time(s)
Russian Federation


Неплохой олдскул.
Go to the top of the page
  Insert nick Quick quote
+Quote Post
post Jun 8 2019, 08:42:30
Post #4

𝕻𝕬𝕹𝕬𝕮𝕰𝕬
******
Group: Металариец
Posts: 679
Releases: 379
On Forums: 7 years 1 month
Thanks: 5564 time(s)
Unknown


QUOTE(igore2911 @ Jun 8 2019, 08:12:52) *
Неплохой олдскул.

Very good old school release and with amazing vocals reminding a mixture of David Vincent (Altars of Madness and Blessed are the Sick era) and Chuck Schuldiner.


Thanks:
Go to the top of the page
  Insert nick Quick quote
+Quote Post
post Jun 28 2019, 12:34:36
Post #5

𝕻𝕬𝕹𝕬𝕮𝕰𝕬
******
Group: Металариец
Posts: 679
Releases: 379
On Forums: 7 years 1 month
Thanks: 5564 time(s)
Unknown


FLAC 348MB
Register


Go to the top of the page
  Insert nick Quick quote
+Quote Post

Reply to this topicStart new topic
1 User(s) are reading this topic (1 Guests and 0 Anonymous Users)
0 Members:

 



- Lo-Fi Version Support form
Copyrights and abuse reports form
Time is now: 18th July 2019 - 01:31:48