Welcome Guest ( Log In | Register )

 
Reply to this topicStart new topic
> Witches Hex - Rituals Under The Red Moon [demo] (2019), Raw Black Metal
post Jun 6 2019, 21:53:31
Post #1

𝕻𝕬𝕹𝕬𝕮𝕰𝕬
******
Group: Металариец
Posts: 692
Releases: 388
On Forums: 7 years 3 months
Thanks: 5803 time(s)
Unknown


(IMG:http://metalarea.org/images/audiocovers/2019_Jun/acov_tid322751_thumb.jpg)

*Artist: Witches Hex
*Album: Rituals Under The Red Moon [demo]
*Year: 2019
*Genre: Raw Black Metal
*Country: Canada (IMG:http://metalarea.org/forum/style_images/flags/Canada.png)
*Format: mp3@CBR320kbps
*Size: 112MB

Tracklist:
1. Grim Satisfaction 03:59
2. Genocide The Human Race 03:42
3. Forever In Hell 04:05
4. Deathless Eternity 03:44
5. Nuke The World 05:37
6. Hallucinations Of The Ancient Ones 03:11
7. Dreams Of Profound Terror 04:27
8. Forbidden Truths 04:39
9. A Morbid Curiosity 03:01
10. Gazing Out Across The Plains Of Possibility 05:19
11. Vengeance And Sacrifice 04:58
12. Spectral Realm 03:33
******************************
Total playing time: 50:15



Technical info
(IMG:http://metalarea.org/images/spectrogram/2019_Jun/e74551e4f80c63654bf8ff52faa876b9.png)
Input File: 04 - Deathless Eternity.mp3
Channels : 2
Sample Rate : 44100
Precision : 16-bit
Duration : 00:03:44.49 = 9899789 samples = 16836.4 CDDA sectors
File Size : 9.26M
Bit Rate : 330k
Sample Encoding: MPEG audio (layer I, II or III)
Comments :
Title=Deathless Eternity
Artist=Witches Hex
Album=Rituals Under The Red Moon (Demo)
Tracknumber=4
Year=2019
Genre=Raw Black Metal



Register


Go to the top of the page
  Insert nick Quick quote
+Quote Post

Reply to this topicStart new topic
2 User(s) are reading this topic (2 Guests and 0 Anonymous Users)
0 Members:

 



- Lo-Fi Version Support form
Copyrights and abuse reports form
Time is now: 16th September 2019 - 07:36:42