Welcome Guest ( Log In | Register )

> И неформату есть предел.

Рэп/хип-хоп/шансон/поп удаляются. Для них есть свои порталы.

 
Reply to this topicStart new topic
> Völund Smed - The Best Of (2019), Viking Rock
post Jun 7 2019, 10:09:16
Post #1

Литр
*
Group: Подсевший
Posts: 82
Releases: 32
From: DONBASS
On Forums: 7 years 5 months
Thanks: 501 time(s)
Ukraine


(IMG:https://metalarea.org/images/audiocovers/2019_Jun/acov_tid322767_thumb.jpg)

*Artist: Völund Smed
*Album: The Best Of
*Year: 2019
*Genre: Viking Rock
*Country: Sweden (IMG:https://metalarea.org/forum/style_images/flags/Sweden.png)
*Format: mp3@CBR320kbps
*Size: 91MB

Tracklist:
01. Volund
02. Maste Fa Ett Slut
03. Midsommarblot
04. Varg
05. Tro
06. Asikt
07. Attack
08. I Det Bla
09. De Tystas Led
10. Tusen Slag
11. Ur Askan
12. Raserare
******************************
Total playing time: 40:26



Technical info
(IMG:https://metalarea.org/images/spectrogram/2019_Jun/71847c538220f49157aac4963b1cbccc.png)
Input File: 05. Volund Smed - Tro.mp3
Channels : 2
Sample Rate : 44100
Precision : 16-bit
Duration : 00:02:16.81 = 6033233 samples = 10260.6 CDDA sectors
File Size : 5.58M
Bit Rate : 326k
Sample Encoding: MPEG audio (layer I, II or III)
Comments :
Title=Tro
Artist=Völund Smed
Album=The Best Of
Tracknumber=05/12
Year=2019
Genre=Other



Register


Go to the top of the page
  Insert nick Quick quote
+Quote Post

Reply to this topicStart new topic
1 User(s) are reading this topic (1 Guests and 0 Anonymous Users)
0 Members:

 



- Lo-Fi Version Support form
Copyrights and abuse reports form
Time is now: 21st September 2019 - 12:19:35