Welcome Guest ( Log In | Register )

> 

Здесь релизы с живыми прямыми ссылками на lossless

> Harsh Realm - Beyond Torment [ep] (2019), Old School Death Metal
post Jun 8 2019, 05:28:35
Post #1

Правь статус, ####!111
**************
Group: Металариец
Posts: 19,794
Releases: 13425
From: Г.Харьков
On Forums: 7 years 6 months
Thanks: 232293 time(s)
Unknown


(IMG:https://metalarea.org/images/audiocovers/2019_Jun/acov_tid322803_thumb.jpg)

*Artist: Harsh Realm
*Album: Beyond Torment [ep]
*Year: 2019
*Genre: Old School Death Metal
*Country: United States (IMG:https://metalarea.org/forum/style_images/flags/United%20States.png)
*Format: mp3@CBR320kbps
*Size: 34MB

Tracklist:
1. Void 03:07
2. Death Dream 04:00
3. Passage 00:37
4. Fetching Madness 03:18
5. Portal 02:55
******************************
Total playing time: 13:57




Extended info
Nathan Landolt - Guitar/Vocals
Alex Farrar - Drums
Mike Royal - Guitar/Synth
Hannah Cruey - Bass


Technical info
(IMG:https://metalarea.org/images/spectrogram/2019_Jun/196211e21322b8023f74b8bba96f57cc.png)
Input File: 04 - Fetching Madness.mp3
Channels : 2
Sample Rate : 44100
Precision : 16-bit
Duration : 00:03:18.83 = 8768315 samples = 14912.1 CDDA sectors
File Size : 8.22M
Bit Rate : 331k
Sample Encoding: MPEG audio (layer I, II or III)
Comments :
Title=Fetching Madness
Artist=Harsh Realm
Album=Beyond Torment
Tracknumber=4
Year=2019
Genre=22
Discnumber=1



Register


Go to the top of the page
  Insert nick Quick quote
+Quote Post
 
Start new topic
Replies (1 - 1)
post Jun 8 2019, 07:16:35
Post #2

Правь статус, ####!111
**************
Group: Металариец
Posts: 19,794
Releases: 13425
From: Г.Харьков
On Forums: 7 years 6 months
Thanks: 232293 time(s)
Unknown


FLAC (Tracks) 105mb
Register


Thanks:
Go to the top of the page
  Insert nick Quick quote
+Quote Post

Reply to this topicStart new topic
1 User(s) are reading this topic (1 Guests and 0 Anonymous Users)
0 Members:

 



- Lo-Fi Version Support form
Copyrights and abuse reports form
Time is now: 9th December 2019 - 03:35:59