Welcome Guest ( Log In | Register )

> И неформату есть предел.

Рэп/хип-хоп/шансон/поп удаляются. Для них есть свои порталы.

 
Reply to this topicStart new topic
> Moskwa - Nigdy! [demo] (1986), Metal Damaged Hardcore Punk Thrash
post Jun 8 2019, 19:11:52
Post #1

Пять Литров
*****
Group: Металариец
Posts: 470
Releases: 101
On Forums: 7 months 3 weeks
Thanks: 1020 time(s)
Canada


(IMG:https://metalarea.org/images/audiocovers/2019_Jun/acov_tid322827_thumb.jpg)

*Artist: Moskwa
*Album: Nigdy! [demo]
*Year: 1986
*Genre: Metal Damaged Hardcore Punk Thrash
*Country: Poland (IMG:https://metalarea.org/forum/style_images/flags/Poland.png)
*Format: mp3@CBR320kbps
*Size: 104MB

Tracklist:
1. Nigdy! 01:39
2. Za Kratami 03:24
3. Tylko Patrzymy 02:36
4. Czarna Data 01:52
5. Powietrza 02:11
6. Wasze Ja 02:55
7. Światło 01:22
8. Propaganda 01:32
9. Fita Fita 01:37
10. Dzień Ocalenia 03:12
11. Wstawaj I Walcz 02:05
12. Pokolenie Małp 02:07
13. Slogan 02:26
14. Sam Dalej 02:06
15. Vistula 02:26
16. Problem 03:07
17. Samobójstwa 02:22
18. Masturbacja 01:51
19. Krzyk 01:53
20. Koniec 02:06
******************************
Total playing time: 44:49

Extended info
Moskwa (Poland) MAXIMUM ROCK N ROLL #057_Jan 1988 Poland scene report

http://oi67.tinypic.com/2ugdnjp.jpg

http://oi68.tinypic.com/5x1gyr.jpg


Technical info
(IMG:https://metalarea.org/images/spectrogram/2019_Jun/e5f3389dcea09461b6f603d589025985.png)
Input File: 01 Nigdy!.mp3
Channels : 2
Sample Rate : 44100
Precision : 16-bit
Duration : 00:01:39.19 = 4374323 samples = 7439.32 CDDA sectors
File Size : 4.03M
Bit Rate : 325k
Sample Encoding: MPEG audio (layer I, II or III)
Comments :
Title=Nigdy!
Artist=Moskwa
Album=Nigdy!
Tracknumber=01/20
Year=1986
Genre=Hardcore



Register


Go to the top of the page
  Insert nick Quick quote
+Quote Post

Reply to this topicStart new topic
1 User(s) are reading this topic (1 Guests and 0 Anonymous Users)
0 Members:

 



- Lo-Fi Version Support form
Copyrights and abuse reports form
Time is now: 21st September 2019 - 11:53:36